  0
SECTION
  2
HEADER
  9
$ACADVER
  1
AC1018
  9
$ACADMAINTVER
 70
   104
  9
$DWGCODEPAGE
  3
ANSI_1250
  9
$LASTSAVEDBY
  1
bonzo
  9
$INSBASE
 10
0.0
 20
0.0
 30
0.0
  9
$EXTMIN
 10
16.53528533916938
 20
-2.499684263790875
 30
-0.000000000000013
  9
$EXTMAX
 10
26.89523062854934
 20
5.269068546488824
 30
0.0000000000000023
  9
$LIMMIN
 10
0.0
 20
0.0
  9
$LIMMAX
 10
12.0
 20
9.0
  9
$ORTHOMODE
 70
     1
  9
$REGENMODE
 70
     1
  9
$FILLMODE
 70
     1
  9
$QTEXTMODE
 70
     0
  9
$MIRRTEXT
 70
     1
  9
$LTSCALE
 40
1.0
  9
$ATTMODE
 70
     1
  9
$TEXTSIZE
 40
0.2
  9
$TRACEWID
 40
0.05
  9
$TEXTSTYLE
  7
Standard
  9
$CLAYER
  8
0
  9
$CELTYPE
  6
ByLayer
  9
$CECOLOR
 62
   256
  9
$CELTSCALE
 40
1.0
  9
$DISPSILH
 70
     0
  9
$DIMSCALE
 40
0.02
  9
$DIMASZ
 40
3.0
  9
$DIMEXO
 40
20.0
  9
$DIMDLI
 40
0.0
  9
$DIMRND
 40
0.05
  9
$DIMDLE
 40
0.0
  9
$DIMEXE
 40
5.0
  9
$DIMTP
 40
0.0
  9
$DIMTM
 40
0.0
  9
$DIMTXT
 40
9.0
  9
$DIMCEN
 40
12.0
  9
$DIMTSZ
 40
0.0
  9
$DIMTOL
 70
     0
  9
$DIMLIM
 70
     0
  9
$DIMTIH
 70
     0
  9
$DIMTOH
 70
     0
  9
$DIMSE1
 70
     1
  9
$DIMSE2
 70
     1
  9
$DIMTAD
 70
     1
  9
$DIMZIN
 70
     1
  9
$DIMBLK
  1

  9
$DIMASO
 70
     1
  9
$DIMSHO
 70
     1
  9
$DIMPOST
  1

  9
$DIMAPOST
  1

  9
$DIMALT
 70
     0
  9
$DIMALTD
 70
     4
  9
$DIMALTF
 40
1.0
  9
$DIMLFAC
 40
1.0
  9
$DIMTOFL
 70
     1
  9
$DIMTVP
 40
0.0
  9
$DIMTIX
 70
     1
  9
$DIMSOXD
 70
     0
  9
$DIMSAH
 70
     1
  9
$DIMBLK1
  1
MAR-STRZ
  9
$DIMBLK2
  1
MAR-STRZ
  9
$DIMSTYLE
  2
AR SKALA 1-50
  9
$DIMCLRD
 70
   256
  9
$DIMCLRE
 70
   256
  9
$DIMCLRT
 70
   256
  9
$DIMTFAC
 40
0.01
  9
$DIMGAP
 40
6.0
  9
$DIMJUST
 70
     0
  9
$DIMSD1
 70
     0
  9
$DIMSD2
 70
     0
  9
$DIMTOLJ
 70
     1
  9
$DIMTZIN
 70
     0
  9
$DIMALTZ
 70
     0
  9
$DIMALTTZ
 70
     0
  9
$DIMUPT
 70
     0
  9
$DIMDEC
 70
     2
  9
$DIMTDEC
 70
     2
  9
$DIMALTU
 70
     2
  9
$DIMALTTD
 70
     4
  9
$DIMTXSTY
  7
AR 01 SWIS
  9
$DIMAUNIT
 70
     0
  9
$DIMADEC
 70
     1
  9
$DIMALTRND
 40
0.0
  9
$DIMAZIN
 70
     0
  9
$DIMDSEP
 70
    46
  9
$DIMATFIT
 70
     3
  9
$DIMFRAC
 70
     0
  9
$DIMLDRBLK
  1
MAR-STRZ
  9
$DIMLUNIT
 70
     2
  9
$DIMLWD
 70
    -2
  9
$DIMLWE
 70
    -2
  9
$DIMTMOVE
 70
     2
  9
$LUNITS
 70
     2
  9
$LUPREC
 70
     4
  9
$SKETCHINC
 40
0.1
  9
$FILLETRAD
 40
0.05
  9
$AUNITS
 70
     0
  9
$AUPREC
 70
     0
  9
$MENU
  1
.
  9
$ELEVATION
 40
0.0
  9
$PELEVATION
 40
0.0
  9
$THICKNESS
 40
0.0
  9
$LIMCHECK
 70
     0
  9
$CHAMFERA
 40
0.5
  9
$CHAMFERB
 40
0.5
  9
$CHAMFERC
 40
1.0
  9
$CHAMFERD
 40
0.0
  9
$SKPOLY
 70
     0
  9
$TDCREATE
 40
2455956.457693160
  9
$TDUCREATE
 40
2455956.416026493
  9
$TDUPDATE
 40
2459276.539702847
  9
$TDUUPDATE
 40
2459276.498036181
  9
$TDINDWG
 40
0.2220634606
  9
$TDUSRTIMER
 40
0.2220622338
  9
$USRTIMER
 70
     1
  9
$ANGBASE
 50
0.0
  9
$ANGDIR
 70
     0
  9
$PDMODE
 70
     0
  9
$PDSIZE
 40
0.0
  9
$PLINEWID
 40
0.0
  9
$SPLFRAME
 70
     0
  9
$SPLINETYPE
 70
     6
  9
$SPLINESEGS
 70
     8
  9
$HANDSEED
  5
5F35
  9
$SURFTAB1
 70
     6
  9
$SURFTAB2
 70
     6
  9
$SURFTYPE
 70
     6
  9
$SURFU
 70
     6
  9
$SURFV
 70
     6
  9
$UCSBASE
  2

  9
$UCSNAME
  2

  9
$UCSORG
 10
0.0
 20
0.0
 30
0.0
  9
$UCSXDIR
 10
1.0
 20
0.0
 30
0.0
  9
$UCSYDIR
 10
0.0
 20
1.0
 30
0.0
  9
$UCSORTHOREF
  2

  9
$UCSORTHOVIEW
 70
     0
  9
$UCSORGTOP
 10
0.0
 20
0.0
 30
0.0
  9
$UCSORGBOTTOM
 10
0.0
 20
0.0
 30
0.0
  9
$UCSORGLEFT
 10
0.0
 20
0.0
 30
0.0
  9
$UCSORGRIGHT
 10
0.0
 20
0.0
 30
0.0
  9
$UCSORGFRONT
 10
0.0
 20
0.0
 30
0.0
  9
$UCSORGBACK
 10
0.0
 20
0.0
 30
0.0
  9
$PUCSBASE
  2

  9
$PUCSNAME
  2

  9
$PUCSORG
 10
0.0
 20
0.0
 30
0.0
  9
$PUCSXDIR
 10
1.0
 20
0.0
 30
0.0
  9
$PUCSYDIR
 10
0.0
 20
1.0
 30
0.0
  9
$PUCSORTHOREF
  2

  9
$PUCSORTHOVIEW
 70
     0
  9
$PUCSORGTOP
 10
0.0
 20
0.0
 30
0.0
  9
$PUCSORGBOTTOM
 10
0.0
 20
0.0
 30
0.0
  9
$PUCSORGLEFT
 10
0.0
 20
0.0
 30
0.0
  9
$PUCSORGRIGHT
 10
0.0
 20
0.0
 30
0.0
  9
$PUCSORGFRONT
 10
0.0
 20
0.0
 30
0.0
  9
$PUCSORGBACK
 10
0.0
 20
0.0
 30
0.0
  9
$USERI1
 70
     0
  9
$USERI2
 70
     0
  9
$USERI3
 70
     0
  9
$USERI4
 70
     0
  9
$USERI5
 70
     0
  9
$USERR1
 40
0.0
  9
$USERR2
 40
0.0
  9
$USERR3
 40
0.0
  9
$USERR4
 40
0.0
  9
$USERR5
 40
0.0
  9
$WORLDVIEW
 70
     1
  9
$SHADEDGE
 70
     3
  9
$SHADEDIF
 70
    70
  9
$TILEMODE
 70
     1
  9
$MAXACTVP
 70
    64
  9
$PINSBASE
 10
0.0
 20
0.0
 30
0.0
  9
$PLIMCHECK
 70
     0
  9
$PEXTMIN
 10
6.561544945354852
 20
3.282189374834857
 30
0.0
  9
$PEXTMAX
 10
296.6096419909582
 20
206.4421558651099
 30
0.0
  9
$PLIMMIN
 10
3.386557152386103
 20
0.1071894225185588
  9
$PLIMMAX
 10
300.4395661855892
 20
209.9958460387295
  9
$UNITMODE
 70
     0
  9
$VISRETAIN
 70
     1
  9
$PLINEGEN
 70
     0
  9
$PSLTSCALE
 70
     0
  9
$TREEDEPTH
 70
  3020
  9
$CMLSTYLE
  2
Standard
  9
$CMLJUST
 70
     0
  9
$CMLSCALE
 40
1.0
  9
$PROXYGRAPHICS
 70
     1
  9
$MEASUREMENT
 70
     0
  9
$CELWEIGHT
370
    -1
  9
$ENDCAPS
280
     0
  9
$JOINSTYLE
280
     0
  9
$LWDISPLAY
290
     0
  9
$INSUNITS
 70
     1
  9
$HYPERLINKBASE
  1

  9
$STYLESHEET
  1

  9
$XEDIT
290
     1
  9
$CEPSNTYPE
380
     0
  9
$PSTYLEMODE
290
     1
  9
$FINGERPRINTGUID
  2
{1B330B5B-CE04-4EC8-B886-8C8BFC3A02BF}
  9
$VERSIONGUID
  2
{19CD9FF2-01E5-4509-A059-D0082A3858C4}
  9
$EXTNAMES
290
     1
  9
$PSVPSCALE
 40
0.0
  9
$OLESTARTUP
290
     0
  9
$SORTENTS
280
   127
  9
$INDEXCTL
280
     0
  9
$HIDETEXT
280
     1
  9
$XCLIPFRAME
290
     0
  9
$HALOGAP
280
     0
  9
$OBSCOLOR
 70
   257
  9
$OBSLTYPE
280
     0
  9
$INTERSECTIONDISPLAY
280
     0
  9
$INTERSECTIONCOLOR
 70
   257
  9
$DIMASSOC
280
     2
  9
$PROJECTNAME
  1

  0
ENDSEC
  0
SECTION
  2
CLASSES
  0
CLASS
  1
ACDBDICTIONARYWDFLT
  2
AcDbDictionaryWithDefault
  3
ObjectDBX Classes
 90
        0
 91
        1
280
     0
281
     0
  0
CLASS
  1
VISUALSTYLE
  2
AcDbVisualStyle
  3
ObjectDBX Classes
 90
     4095
 91
       16
280
     0
281
     0
  0
CLASS
  1
MATERIAL
  2
AcDbMaterial
  3
ObjectDBX Classes
 90
     1153
 91
        3
280
     0
281
     0
  0
CLASS
  1
DICTIONARYVAR
  2
AcDbDictionaryVar
  3
ObjectDBX Classes
 90
        0
 91
        9
280
     0
281
     0
  0
CLASS
  1
TABLESTYLE
  2
AcDbTableStyle
  3
ObjectDBX Classes
 90
     4095
 91
        1
280
     0
281
     0
  0
CLASS
  1
SORTENTSTABLE
  2
AcDbSortentsTable
  3
ObjectDBX Classes
 90
        0
 91
        4
280
     0
281
     0
  0
CLASS
  1
DIMASSOC
  2
AcDbDimAssoc
  3
"AcDbDimAssoc|Product Desc:     AcDim ARX App For Dimension|Company:          Autodesk, Inc.|WEB Address:      www.autodesk.com"
 90
        0
 91
        2
280
     0
281
     0
  0
CLASS
  1
SCALE
  2
AcDbScale
  3
ObjectDBX Classes
 90
     1153
 91
       69
280
     0
281
     0
  0
CLASS
  1
MLEADERSTYLE
  2
AcDbMLeaderStyle
  3
ACDB_MLEADERSTYLE_CLASS
 90
     4095
 91
        1
280
     0
281
     0
  0
CLASS
  1
CELLSTYLEMAP
  2
AcDbCellStyleMap
  3
ObjectDBX Classes
 90
     1152
 91
        2
280
     0
281
     0
  0
ENDSEC
  0
SECTION
  2
TABLES
  0
TABLE
  2
VPORT
  5
8
102
{ACAD_XDICTIONARY
360
84C
102
}
330
0
100
AcDbSymbolTable
 70
     1
  0
VPORT
  5
29
330
8
100
AcDbSymbolTableRecord
100
AcDbViewportTableRecord
  2
*Active
 70
     0
 10
0.0
 20
0.0
 11
1.0
 21
1.0
 12
21.40532852514324
 22
1.434108471884893
 13
0.0
 23
0.0
 14
0.5
 24
0.5
 15
0.5
 25
0.5
 16
0.0
 26
0.0
 36
1.0
 17
0.0
 27
0.0
 37
-1000.0
 40
13.41755860260852
 41
2.060556464811783
 42
50.0
 43
4.148984367261673
 44
9.217858496371267
 50
0.0
 51
0.0
 71
     0
 72
   100
 73
     1
 74
     3
 75
     0
 76
     0
 77
     0
 78
     0
281
     0
 65
     1
110
0.0
120
0.0
130
0.0
111
1.0
121
0.0
131
0.0
112
0.0
122
1.0
132
0.0
 79
     0
146
0.0
  0
ENDTAB
  0
TABLE
  2
LTYPE
  5
5
330
0
100
AcDbSymbolTable
 70
     3
  0
LTYPE
  5
14
330
5
100
AcDbSymbolTableRecord
100
AcDbLinetypeTableRecord
  2
ByBlock
 70
     0
  3

 72
    65
 73
     0
 40
0.0
  0
LTYPE
  5
15
330
5
100
AcDbSymbolTableRecord
100
AcDbLinetypeTableRecord
  2
ByLayer
 70
     0
  3

 72
    65
 73
     0
 40
0.0
  0
LTYPE
  5
16
330
5
100
AcDbSymbolTableRecord
100
AcDbLinetypeTableRecord
  2
Continuous
 70
     0
  3
Solid line
 72
    65
 73
     0
 40
0.0
  0
LTYPE
  5
886
330
5
100
AcDbSymbolTableRecord
100
AcDbLinetypeTableRecord
  2
DASHED
 70
     0
  3
Dashed __ __ __ __ __ __ __ __ __ __ __ __ __ _
 72
    65
 73
     2
 40
0.75
 49
0.5
 74
     0
 49
-0.25
 74
     0
  0
LTYPE
  5
3F81
330
5
100
AcDbSymbolTableRecord
100
AcDbLinetypeTableRecord
  2
DGN Style 4
 70
     0
  3
Dgn Style 4
 72
    65
 73
     4
 40
107.2442101345821
 49
53.58861218467564
 74
     0
 49
-26.79430609233782
 74
     0
 49
0.0669857652308446
 74
     0
 49
-26.79430609233782
 74
     0
  0
ENDTAB
  0
TABLE
  2
LAYER
  5
2
102
{ACAD_XDICTIONARY
360
7D1
102
}
330
0
100
AcDbSymbolTable
 70
     4
  0
LAYER
  5
10
102
{ACAD_XDICTIONARY
360
3598
102
}
330
2
100
AcDbSymbolTableRecord
100
AcDbLayerTableRecord
  2
0
 70
     0
 62
     7
  6
Continuous
370
    80
390
F
  0
LAYER
  5
87B
102
{ACAD_XDICTIONARY
360
359A
102
}
330
2
100
AcDbSymbolTableRecord
100
AcDbLayerTableRecord
  2
STREFA BEZPIECZEŃSTWA
 70
     0
 62
     7
  6
DASHED
370
    80
390
F
1001
AcAecLayerStandard
1000

1000

  0
LAYER
  5
87D
102
{ACAD_XDICTIONARY
360
359C
102
}
330
2
100
AcDbSymbolTableRecord
100
AcDbLayerTableRecord
  2
WYMIAR
 70
     0
 62
     7
  6
Continuous
370
    80
390
F
1001
AcAecLayerStandard
1000

1000

  0
LAYER
  5
8CC
330
2
100
AcDbSymbolTableRecord
100
AcDbLayerTableRecord
  2
Defpoints
 70
     0
 62
     7
  6
Continuous
290
     0
370
     5
390
F
1001
RAK
1000
{ACET-LAYISO
1070
     0
1070
     7
1000
Continuous
1071
        5
1071
        0
1005
F
1000
ACET-LAYISO}
  0
ENDTAB
  0
TABLE
  2
STYLE
  5
3
330
0
100
AcDbSymbolTable
 70
     5
  0
STYLE
  5
11
330
3
100
AcDbSymbolTableRecord
100
AcDbTextStyleTableRecord
  2
Standard
 70
     0
 40
0.0
 41
1.0
 50
0.0
 71
     0
 42
0.2
  3
txt
  4

  0
STYLE
  5
8CE
330
3
100
AcDbSymbolTableRecord
100
AcDbTextStyleTableRecord
  2
AR 01 SWIS
 70
     0
 40
0.0
 41
1.0
 50
0.0
 71
     0
 42
55.0
  3

  4

1001
ACAD
1000
Swis721 Cn BT
1071
       34
  0
STYLE
  5
3F82
330
3
100
AcDbSymbolTableRecord
100
AcDbTextStyleTableRecord
  2
Style-ITALIC_1250
 70
     0
 40
0.0
 41
1.0
 50
0.0
 71
     0
 42
0.2
  3
ITALIC_1250.shx
  4

  0
ENDTAB
  0
TABLE
  2
VIEW
  5
6
330
0
100
AcDbSymbolTable
 70
     0
  0
ENDTAB
  0
TABLE
  2
UCS
  5
7
330
0
100
AcDbSymbolTable
 70
     0
  0
ENDTAB
  0
TABLE
  2
APPID
  5
9
330
0
100
AcDbSymbolTable
 70
    11
  0
APPID
  5
12
330
9
100
AcDbSymbolTableRecord
100
AcDbRegAppTableRecord
  2
ACAD
 70
     0
  0
APPID
  5
7CB
330
9
100
AcDbSymbolTableRecord
100
AcDbRegAppTableRecord
  2
ACAD_PSEXT
 70
     0
  0
APPID
  5
875
330
9
100
AcDbSymbolTableRecord
100
AcDbRegAppTableRecord
  2
ACAD_EXEMPT_FROM_CAD_STANDARDS
 70
     0
  0
APPID
  5
87C
330
9
100
AcDbSymbolTableRecord
100
AcDbRegAppTableRecord
  2
AcAecLayerStandard
 70
     0
  0
APPID
  5
8D4
330
9
100
AcDbSymbolTableRecord
100
AcDbRegAppTableRecord
  2
RAK
 70
     0
  0
APPID
  5
8D5
330
9
100
AcDbSymbolTableRecord
100
AcDbRegAppTableRecord
  2
ACAD_DSTYLE_DIMJOGGED_JOGANGLE_SYMBOL
 70
     0
  0
APPID
  5
8D6
330
9
100
AcDbSymbolTableRecord
100
AcDbRegAppTableRecord
  2
ACAD_DSTYLE_DIMJAG
 70
     0
  0
APPID
  5
8D7
330
9
100
AcDbSymbolTableRecord
100
AcDbRegAppTableRecord
  2
ACAD_DSTYLE_DIMTALN
 70
     0
  0
APPID
  5
3568
330
9
100
AcDbSymbolTableRecord
100
AcDbRegAppTableRecord
  2
ACAD_MLEADERVER
 70
     0
  0
APPID
  5
3D4E
330
9
100
AcDbSymbolTableRecord
100
AcDbRegAppTableRecord
  2
ACAD_DSTYLE_DIMRADIAL_EXTENSION
 70
     0
  0
APPID
  5
3F83
330
9
100
AcDbSymbolTableRecord
100
AcDbRegAppTableRecord
  2
ACAD_NAV_VCDISPLAY
 70
     0
  0
ENDTAB
  0
TABLE
  2
DIMSTYLE
  5
A
330
0
100
AcDbSymbolTable
 70
     4
100
AcDbDimStyleTable
 71
     1
340
8CF
  0
DIMSTYLE
105
8CF
102
{ACAD_REACTORS
330
5E6E
330
5E82
102
}
330
A
100
AcDbSymbolTableRecord
100
AcDbDimStyleTableRecord
  2
AR SKALA 1-50
 70
     0
 40
0.02
 41
3.0
 42
20.0
 43
0.0
 44
5.0
 45
0.05
 73
     0
 74
     0
 75
     1
 76
     1
 77
     1
 78
     1
140
9.0
141
12.0
143
1.0
146
0.01
147
6.0
171
     4
172
     1
173
     1
174
     1
176
   256
177
   256
178
   256
179
     1
271
     2
272
     2
274
     4
279
     2
340
8CE
341
8BC
343
8BC
344
8BC
  0
DIMSTYLE
105
B3C
330
A
100
AcDbSymbolTableRecord
100
AcDbDimStyleTableRecord
  2
Standard
 70
     0
340
11
  0
ENDTAB
  0
TABLE
  2
BLOCK_RECORD
  5
1
330
0
100
AcDbSymbolTable
 70
    17
  0
BLOCK_RECORD
  5
1F
102
{ACAD_XDICTIONARY
360
5F8
102
}
330
1
100
AcDbSymbolTableRecord
100
AcDbBlockTableRecord
  2
*Model_Space
340
22
  0
BLOCK_RECORD
  5
1B
330
1
100
AcDbSymbolTableRecord
100
AcDbBlockTableRecord
  2
*Paper_Space
340
1E
  0
BLOCK_RECORD
  5
8BC
330
1
100
AcDbSymbolTableRecord
100
AcDbBlockTableRecord
  2
MAR-STRZ
340
0
310
2800000020000000200000000100080000000000000400000000000000000000000000000000000000000000000080000080000000808000800000008000800080800000C0C0C000C0DCC000F0CAA6000020400000206000002080000020A0000020C0000020E00000400000004020000040400000406000004080000040A0
310
000040C0000040E00000600000006020000060400000606000006080000060A0000060C0000060E00000800000008020000080400000806000008080000080A0000080C0000080E00000A0000000A0200000A0400000A0600000A0800000A0A00000A0C00000A0E00000C0000000C0200000C0400000C0600000C0800000C0
310
A00000C0C00000C0E00000E0000000E0200000E0400000E0600000E0800000E0A00000E0C00000E0E00040000000400020004000400040006000400080004000A0004000C0004000E00040200000402020004020400040206000402080004020A0004020C0004020E000404000004040200040404000404060004040800040
310
40A0004040C0004040E00040600000406020004060400040606000406080004060A0004060C0004060E00040800000408020004080400040806000408080004080A0004080C0004080E00040A0000040A0200040A0400040A0600040A0800040A0A00040A0C00040A0E00040C0000040C0200040C0400040C0600040C08000
310
40C0A00040C0C00040C0E00040E0000040E0200040E0400040E0600040E0800040E0A00040E0C00040E0E00080000000800020008000400080006000800080008000A0008000C0008000E00080200000802020008020400080206000802080008020A0008020C0008020E00080400000804020008040400080406000804080
310
008040A0008040C0008040E00080600000806020008060400080606000806080008060A0008060C0008060E00080800000808020008080400080806000808080008080A0008080C0008080E00080A0000080A0200080A0400080A0600080A0800080A0A00080A0C00080A0E00080C0000080C0200080C0400080C0600080C0
310
800080C0A00080C0C00080C0E00080E0000080E0200080E0400080E0600080E0800080E0A00080E0C00080E0E000C0000000C0002000C0004000C0006000C0008000C000A000C000C000C000E000C0200000C0202000C0204000C0206000C0208000C020A000C020C000C020E000C0400000C0402000C0404000C0406000C0
310
408000C040A000C040C000C040E000C0600000C0602000C0604000C0606000C0608000C060A000C060C000C060E000C0800000C0802000C0804000C0806000C0808000C080A000C080C000C080E000C0A00000C0A02000C0A04000C0A06000C0A08000C0A0A000C0A0C000C0A0E000C0C00000C0C02000C0C04000C0C06000
310
C0C08000C0C0A000F0FBFF00A4A0A000808080000000FF0000FF000000FFFF00FF000000FF00FF00FFFF0000FFFFFF00000000000000000000000000000000000000000000000000000000000000000000000000000000000000000000000000FF000000000000000000000000000000000000000000000000000000000000
310
00FF00000000000000000000000000000000000000000000000000000000000000FF00000000000000000000000000000000000000000000000000000000000000FF00000000000000000000000000000000000000000000000000000000000000FF000000000000000000000000000000000000000000F900000000000000
310
0000FF00000000000000000000000000000000000000000000F90000000000000000FF0000000000000000000000000000000000000000000000F900000000000000FF000000000000000000000000000000000000000000000000F9000000000000FF00000000000000000000000000000000000000000000000000F90000
310
000000FF0000000000000000000000000000000000000000000000000000F900000000FF000000000000000000000000000000000000000000000000000000F9000000FF00000000000000000000000000000000000000000000000000000000F90000FF000000000000000000000000000000000000000000000000000000
310
0000F900FF000000000000000000000000000000000000000000000000000000000000F9FF00000000000000000000000000000000000000000000FFFFFFFFFFFFFFFFFFFFFFFFFFFFFFFFFFFF0000000000000000000000000000000000000000000000FFF900000000000000000000000000000000000000000000000000
310
0000000000FF00F90000000000000000000000000000000000000000000000000000000000FF0000F900000000000000000000000000000000000000000000000000000000FF000000F9000000000000000000000000000000000000000000000000000000FF00000000F90000000000000000000000000000000000000000
310
000000000000FF0000000000F900000000000000000000000000000000000000000000000000FF000000000000F9000000000000000000000000000000000000000000000000FF00000000000000F90000000000000000000000000000000000000000000000FF0000000000000000F9000000000000000000000000000000
310
00000000000000FF00000000000000000000000000000000000000000000000000000000000000FF00000000000000000000000000000000000000000000000000000000000000FF00000000000000000000000000000000000000000000000000000000000000FF0000000000000000000000000000000000000000000000
310
0000000000000000FF0000000000000000000000000000000000000000000000000000000000000000000000000000000000000000000000
102
{BLKREFS
331
3CD5
331
3CD6
331
3CEB
331
3CEC
331
3D49
331
3D4A
331
3F0E
331
3F0F
331
3F25
331
3F26
331
3F3B
331
3F3C
331
3F4D
331
3F4E
331
5E2B
331
5E2C
331
5E7B
331
5E7C
331
5E8F
331
5E90
102
}
  0
BLOCK_RECORD
  5
361E
102
{ACAD_XDICTIONARY
360
3622
102
}
330
1
100
AcDbSymbolTableRecord
100
AcDbBlockTableRecord
  2
A$C4E47101D
340
0
1001
ACAD
1000
DesignCenter Data
1002
{
1070
     1
1070
     1
1002
}
  0
BLOCK_RECORD
  5
3CB5
330
1
100
AcDbSymbolTableRecord
100
AcDbBlockTableRecord
  2
*D2
340
0
  0
BLOCK_RECORD
  5
3CC9
330
1
100
AcDbSymbolTableRecord
100
AcDbBlockTableRecord
  2
*D3
340
0
  0
BLOCK_RECORD
  5
3D43
330
1
100
AcDbSymbolTableRecord
100
AcDbBlockTableRecord
  2
*D4
340
0
  0
BLOCK_RECORD
  5
3EFF
330
1
100
AcDbSymbolTableRecord
100
AcDbBlockTableRecord
  2
*D5
340
0
  0
BLOCK_RECORD
  5
3F15
330
1
100
AcDbSymbolTableRecord
100
AcDbBlockTableRecord
  2
*D6
340
0
  0
BLOCK_RECORD
  5
3F2B
330
1
100
AcDbSymbolTableRecord
100
AcDbBlockTableRecord
  2
*D7
340
0
  0
BLOCK_RECORD
  5
3F41
330
1
100
AcDbSymbolTableRecord
100
AcDbBlockTableRecord
  2
*D8
340
0
  0
BLOCK_RECORD
  5
3F7B
330
1
100
AcDbSymbolTableRecord
100
AcDbBlockTableRecord
  2
TerminatorOpen_0.5
340
0
  0
BLOCK_RECORD
  5
5BAA
102
{ACAD_XDICTIONARY
360
5BBF
102
}
330
1
100
AcDbSymbolTableRecord
100
AcDbBlockTableRecord
  2
A$C12254DB6
340
0
1001
ACAD
1000
DesignCenter Data
1002
{
1070
     1
1070
     1
1002
}
  0
BLOCK_RECORD
  5
5D9D
102
{ACAD_XDICTIONARY
360
5DA3
102
}
330
1
100
AcDbSymbolTableRecord
100
AcDbBlockTableRecord
  2
A$C64093FDB
340
0
1001
ACAD
1000
DesignCenter Data
1002
{
1070
     1
1070
     1
1002
}
  0
BLOCK_RECORD
  5
5E1F
330
1
100
AcDbSymbolTableRecord
100
AcDbBlockTableRecord
  2
*D12
340
0
  0
BLOCK_RECORD
  5
5E6F
330
1
100
AcDbSymbolTableRecord
100
AcDbBlockTableRecord
  2
*D13
340
0
  0
BLOCK_RECORD
  5
5E83
330
1
100
AcDbSymbolTableRecord
100
AcDbBlockTableRecord
  2
*D14
340
0
  0
ENDTAB
  0
ENDSEC
  0
SECTION
  2
BLOCKS
  0
BLOCK
  5
20
330
1F
100
AcDbEntity
  8
0
100
AcDbBlockBegin
  2
*Model_Space
 70
     0
 10
0.0
 20
0.0
 30
0.0
  3
*Model_Space
  1

  0
ENDBLK
  5
21
330
1F
100
AcDbEntity
  8
0
100
AcDbBlockEnd
  0
BLOCK
  5
1C
330
1B
100
AcDbEntity
 67
     1
  8
0
100
AcDbBlockBegin
  2
*Paper_Space
 70
     0
 10
0.0
 20
0.0
 30
0.0
  3
*Paper_Space
  1

  0
ENDBLK
  5
1D
330
1B
100
AcDbEntity
 67
     1
  8
0
100
AcDbBlockEnd
  0
BLOCK
  5
8BD
330
8BC
100
AcDbEntity
  8
0
100
AcDbBlockBegin
  2
MAR-STRZ
 70
     0
 10
0.0
 20
0.0
 30
0.0
  3
MAR-STRZ
  1

  0
LINE
  5
8BE
330
8BC
100
AcDbEntity
  8
0
100
AcDbLine
 10
0.0
 20
2.299999999999271
 30
0.0
 11
0.0
 21
-2.299999999999271
 31
0.0
  0
LINE
  5
8BF
330
8BC
100
AcDbEntity
  8
0
 62
    10
100
AcDbLine
 10
1.5
 20
1.5
 30
0.0
 11
-1.5
 21
-1.5
 31
0.0
  0
LINE
  5
8C0
330
8BC
100
AcDbEntity
  8
0
100
AcDbLine
 10
1.399999999999636
 20
0.0
 30
0.0
 11
-1.399999999999636
 21
0.0
 31
0.0
  0
ENDBLK
  5
8C1
330
8BC
100
AcDbEntity
  8
0
100
AcDbBlockEnd
  0
BLOCK
  5
3624
330
361E
100
AcDbEntity
  8
0
100
AcDbBlockBegin
  2
A$C4E47101D
 70
     0
 10
0.0
 20
0.0
 30
0.0
  3
A$C4E47101D
  1

  0
LINE
  5
361F
330
361E
100
AcDbEntity
  8
WYMIAR
100
AcDbLine
 10
0.4999999762812557
 20
0.0000000029804639
 30
0.0
 11
0.4999999762812628
 21
2.438843893106029
 31
0.0
  0
LINE
  5
3620
330
361E
100
AcDbEntity
  8
WYMIAR
100
AcDbLine
 10
1.024999976281257
 20
0.0000000029804781
 30
0.0
 11
1.024999976281257
 21
2.438843893106029
 31
0.0
  0
LINE
  5
3621
330
361E
100
AcDbEntity
  8
WYMIAR
100
AcDbLine
 10
-0.0000000237187443
 20
0.0000000029804639
 30
0.0
 11
-0.0000000237187372
 21
2.438843893106029
 31
0.0
  0
ENDBLK
  5
3625
330
361E
100
AcDbEntity
  8
0
100
AcDbBlockEnd
  0
BLOCK
  5
3CB6
330
3CB5
100
AcDbEntity
  8
0
100
AcDbBlockBegin
  2
*D2
 70
     1
 10
0.0
 20
0.0
 30
0.0
  3
*D2
  1

  0
LINE
  5
3CEA
330
3CB5
100
AcDbEntity
  8
WYMIAR
370
    -2
100
AcDbLine
 10
24.73893380543207
 20
5.551570019510393
 30
0.0
 11
29.62733620361666
 21
5.551570019510393
 31
0.0
  0
INSERT
  5
3CEB
330
3CB5
100
AcDbEntity
  8
WYMIAR
370
    -2
100
AcDbBlockReference
  2
MAR-STRZ
 10
24.67893380543207
 20
5.551570019510393
 30
0.0
 41
0.06
 42
0.06
 43
0.06
 50
180.0
  0
INSERT
  5
3CEC
330
3CB5
100
AcDbEntity
  8
WYMIAR
370
    -2
100
AcDbBlockReference
  2
MAR-STRZ
 10
29.68733620361665
 20
5.551570019510393
 30
0.0
 41
0.06
 42
0.06
 43
0.06
  0
MTEXT
  5
3CED
330
3CB5
100
AcDbEntity
  8
WYMIAR
100
AcDbMText
 10
27.18313500452436
 20
5.761570019510393
 30
0.0
 40
0.18
 41
0.0
 71
     5
 72
     1
  1
\A1;5.00
  7
AR 01 SWIS
 73
     1
 44
1.0
  0
POINT
  5
3CEE
330
3CB5
100
AcDbEntity
  8
Defpoints
 62
     0
100
AcDbPoint
 10
24.67893380543207
 20
4.549952262293066
 30
0.0
  0
POINT
  5
3CEF
330
3CB5
100
AcDbEntity
  8
Defpoints
 62
     0
100
AcDbPoint
 10
29.68733620361665
 20
4.980199662285287
 30
0.0
  0
POINT
  5
3CF0
330
3CB5
100
AcDbEntity
  8
Defpoints
 62
     0
100
AcDbPoint
 10
29.68733620361665
 20
5.551570019510393
 30
0.0
  0
ENDBLK
  5
3CB7
330
3CB5
100
AcDbEntity
  8
0
100
AcDbBlockEnd
  0
BLOCK
  5
3CCA
330
3CC9
100
AcDbEntity
  8
0
100
AcDbBlockBegin
  2
*D3
 70
     1
 10
0.0
 20
0.0
 30
0.0
  3
*D3
  1

  0
LINE
  5
3CD4
330
3CC9
100
AcDbEntity
  8
WYMIAR
370
    -2
100
AcDbLine
 10
24.1929621008299
 20
4.920199662285289
 30
0.0
 11
24.1929621008299
 21
0.5401996622852892
 31
0.0
  0
INSERT
  5
3CD5
330
3CC9
100
AcDbEntity
  8
WYMIAR
370
    -2
100
AcDbBlockReference
  2
MAR-STRZ
 10
24.1929621008299
 20
4.980199662285287
 30
0.0
 41
0.06
 42
0.06
 43
0.06
 50
90.0
  0
INSERT
  5
3CD6
330
3CC9
100
AcDbEntity
  8
WYMIAR
370
    -2
100
AcDbBlockReference
  2
MAR-STRZ
 10
24.1929621008299
 20
0.480199662285289
 30
0.0
 41
0.06
 42
0.06
 43
0.06
 50
270.0
  0
MTEXT
  5
3CD7
330
3CC9
100
AcDbEntity
  8
WYMIAR
100
AcDbMText
 10
23.9829621008299
 20
2.730199662285292
 30
0.0
 40
0.18
 41
0.0
 71
     5
 72
     1
  1
\A1;4.50
  7
AR 01 SWIS
 11
0.0000000000000001
 21
1.0
 31
0.0
 73
     1
 44
1.0
  0
POINT
  5
3CD8
330
3CC9
100
AcDbEntity
  8
Defpoints
 62
     0
100
AcDbPoint
 10
25.03993548222463
 20
4.980199662285287
 30
0.0
  0
POINT
  5
3CD9
330
3CC9
100
AcDbEntity
  8
Defpoints
 62
     0
100
AcDbPoint
 10
25.03993548222462
 20
0.4801996622852889
 30
0.0
  0
POINT
  5
3CDA
330
3CC9
100
AcDbEntity
  8
Defpoints
 62
     0
100
AcDbPoint
 10
24.1929621008299
 20
0.480199662285289
 30
0.0
  0
ENDBLK
  5
3CCB
330
3CC9
100
AcDbEntity
  8
0
100
AcDbBlockEnd
  0
BLOCK
  5
3D44
330
3D43
100
AcDbEntity
  8
0
100
AcDbBlockBegin
  2
*D4
 70
     1
 10
0.0
 20
0.0
 30
0.0
  3
*D4
  1

  0
LINE
  5
3D45
330
3D43
100
AcDbEntity
  8
WYMIAR
370
    -2
100
AcDbLine
 10
19.66451870924925
 20
7.226692895061502
 30
0.0
 11
20.67098379487231
 21
7.126613993569637
 31
0.0
  0
LINE
  5
3D46
330
3D43
100
AcDbEntity
  8
WYMIAR
370
    -2
100
AcDbLine
 10
26.95996901916099
 20
6.501262213626133
 30
0.0
 11
27.01967457508778
 21
6.495325329639327
 31
0.0
  0
MTEXT
  5
3D47
102
{ACAD_XDICTIONARY
360
5F2D
102
}
330
3D43
100
AcDbEntity
  8
WYMIAR
100
AcDbMText
 10
20.15867756805119
 20
7.388591332052744
 30
0.0
 40
0.18
 41
0.0
 71
     5
 72
     1
  1
\A1;\U+22056.20
  7
AR 01 SWIS
 11
0.9950925987798564
 21
-0.0989480664467573
 31
0.0
 73
     1
 44
1.0
  0
LINE
  5
3D48
330
3D43
100
AcDbEntity
  8
WYMIAR
370
    -2
100
AcDbLine
 10
26.9002634632342
 20
6.507199097612939
 30
0.0
 11
20.7306893507991
 21
7.120677109582834
 31
0.0
  0
INSERT
  5
3D49
330
3D43
100
AcDbEntity
  8
WYMIAR
370
    -2
100
AcDbBlockReference
  2
MAR-STRZ
 10
26.9002634632342
 20
6.507199097612939
 30
0.0
 41
0.06
 42
0.06
 43
0.06
 50
174.3214013050019
  0
INSERT
  5
3D4A
330
3D43
100
AcDbEntity
  8
WYMIAR
370
    -2
100
AcDbBlockReference
  2
MAR-STRZ
 10
20.7306893507991
 20
7.120677109582834
 30
0.0
 41
0.06
 42
0.06
 43
0.06
 50
354.321401305002
  0
POINT
  5
3D4B
330
3D43
100
AcDbEntity
  8
Defpoints
 62
     0
100
AcDbPoint
 10
20.7306893507991
 20
7.120677109582834
 30
0.0
  0
POINT
  5
3D4C
330
3D43
100
AcDbEntity
  8
Defpoints
 62
     0
100
AcDbPoint
 10
26.9002634632342
 20
6.507199097612939
 30
0.0
  0
ENDBLK
  5
3D4D
330
3D43
100
AcDbEntity
  8
0
100
AcDbBlockEnd
  0
BLOCK
  5
3F00
330
3EFF
100
AcDbEntity
  8
0
100
AcDbBlockBegin
  2
*D5
 70
     1
 10
0.0
 20
0.0
 30
0.0
  3
*D5
  1

  0
LINE
  5
3F0A
330
3EFF
100
AcDbEntity
  8
WYMIAR
370
    -2
100
AcDbLine
 10
21.81567208889866
 20
3.101032930569803
 30
0.0
 11
22.64922368138308
 21
3.018147861922845
 31
0.0
  0
LINE
  5
3F0B
330
3EFF
100
AcDbEntity
  8
WYMIAR
370
    -2
100
AcDbLine
 10
28.93820890567177
 20
2.392796081979339
 30
0.0
 11
28.99791446159856
 21
2.386859197992534
 31
0.0
  0
MTEXT
  5
3F0C
102
{ACAD_XDICTIONARY
360
5F2F
102
}
330
3EFF
100
AcDbEntity
  8
WYMIAR
100
AcDbMText
 10
22.22387151154317
 20
3.276529593538403
 30
0.0
 40
0.18
 41
0.0
 71
     5
 72
     1
  1
\A1;\U+22056.20
  7
AR 01 SWIS
 11
0.9950925987798564
 21
-0.0989480664467573
 31
0.0
 73
     1
 44
1.0
  0
LINE
  5
3F0D
330
3EFF
100
AcDbEntity
  8
WYMIAR
370
    -2
100
AcDbLine
 10
28.87850334974498
 20
2.398732965966145
 30
0.0
 11
22.70892923730987
 21
3.012210977936038
 31
0.0
  0
INSERT
  5
3F0E
330
3EFF
100
AcDbEntity
  8
WYMIAR
370
    -2
100
AcDbBlockReference
  2
MAR-STRZ
 10
28.87850334974498
 20
2.398732965966145
 30
0.0
 41
0.06
 42
0.06
 43
0.06
 50
174.3214013050019
  0
INSERT
  5
3F0F
330
3EFF
100
AcDbEntity
  8
WYMIAR
370
    -2
100
AcDbBlockReference
  2
MAR-STRZ
 10
22.70892923730987
 20
3.012210977936038
 30
0.0
 41
0.06
 42
0.06
 43
0.06
 50
354.321401305002
  0
POINT
  5
3F10
330
3EFF
100
AcDbEntity
  8
Defpoints
 62
     0
100
AcDbPoint
 10
22.70892923730987
 20
3.012210977936038
 30
0.0
  0
POINT
  5
3F11
330
3EFF
100
AcDbEntity
  8
Defpoints
 62
     0
100
AcDbPoint
 10
28.87850334974498
 20
2.398732965966145
 30
0.0
  0
ENDBLK
  5
3F01
330
3EFF
100
AcDbEntity
  8
0
100
AcDbBlockEnd
  0
BLOCK
  5
3F16
330
3F15
100
AcDbEntity
  8
0
100
AcDbBlockBegin
  2
*D6
 70
     1
 10
0.0
 20
0.0
 30
0.0
  3
*D6
  1

  0
LINE
  5
3F21
330
3F15
100
AcDbEntity
  8
STREFA BEZPIECZEŃSTWA
370
    -2
100
AcDbLine
 10
29.77321171672562
 20
3.086156017727366
 30
0.0
 11
28.93935603874406
 21
3.006388228264142
 31
0.0
  0
LINE
  5
3F22
330
3F15
100
AcDbEntity
  8
STREFA BEZPIECZEŃSTWA
370
    -2
100
AcDbLine
 10
22.6480765483108
 20
2.404555715638041
 30
0.0
 11
22.5883492113763
 21
2.39884211583463
 31
0.0
  0
MTEXT
  5
3F23
102
{ACAD_XDICTIONARY
360
5F31
102
}
330
3F15
100
AcDbEntity
  8
STREFA BEZPIECZEŃSTWA
100
AcDbMText
 10
29.36567134015337
 20
3.263177736236078
 30
0.0
 40
0.18
 41
0.0
 71
     5
 72
     1
  1
\A1;\U+22056.20
  7
AR 01 SWIS
 11
0.9954556155748825
 21
0.095226663390206
 31
0.0
 73
     1
 44
1.0
  0
LINE
  5
3F24
330
3F15
100
AcDbEntity
  8
STREFA BEZPIECZEŃSTWA
370
    -2
100
AcDbLine
 10
22.70780388524529
 20
2.410269315441451
 30
0.0
 11
28.87962870180957
 21
3.000674628460731
 31
0.0
  0
INSERT
  5
3F25
330
3F15
100
AcDbEntity
  8
STREFA BEZPIECZEŃSTWA
370
    -2
100
AcDbBlockReference
  2
MAR-STRZ
 10
22.70780388524529
 20
2.410269315441451
 30
0.0
 41
0.06
 42
0.06
 43
0.06
 50
5.464365812763505
  0
INSERT
  5
3F26
330
3F15
100
AcDbEntity
  8
STREFA BEZPIECZEŃSTWA
370
    -2
100
AcDbBlockReference
  2
MAR-STRZ
 10
28.87962870180957
 20
3.000674628460731
 30
0.0
 41
0.06
 42
0.06
 43
0.06
 50
185.4643658127635
  0
POINT
  5
3F27
330
3F15
100
AcDbEntity
  8
Defpoints
 62
     0
100
AcDbPoint
 10
28.87962870180957
 20
3.000674628460731
 30
0.0
  0
POINT
  5
3F28
330
3F15
100
AcDbEntity
  8
Defpoints
 62
     0
100
AcDbPoint
 10
22.70780388524529
 20
2.410269315441451
 30
0.0
  0
ENDBLK
  5
3F17
330
3F15
100
AcDbEntity
  8
0
100
AcDbBlockEnd
  0
BLOCK
  5
3F2C
330
3F2B
100
AcDbEntity
  8
0
100
AcDbBlockBegin
  2
*D7
 70
     1
 10
0.0
 20
0.0
 30
0.0
  3
*D7
  1

  0
LINE
  5
3F37
330
3F2B
100
AcDbEntity
  8
STREFA BEZPIECZEŃSTWA
370
    -2
100
AcDbLine
 10
29.78701016470063
 20
2.892309399717481
 30
0.0
 11
28.95026318695172
 21
2.853159850984676
 31
0.0
  0
LINE
  5
3F38
330
3F2B
100
AcDbEntity
  8
STREFA BEZPIECZEŃSTWA
370
    -2
100
AcDbLine
 10
22.63716940010313
 20
2.557784092917505
 30
0.0
 11
22.57723496541785
 21
2.554979892682688
 31
0.0
  0
MTEXT
  5
3F39
102
{ACAD_XDICTIONARY
360
5F33
102
}
330
3F2B
100
AcDbEntity
  8
STREFA BEZPIECZEŃSTWA
100
AcDbMText
 10
29.38855429505456
 20
3.08892772873343
 30
0.0
 40
0.18
 41
0.0
 71
     5
 72
     1
  1
\A1;\U+22056.20
  7
AR 01 SWIS
 11
0.9989072447545234
 21
0.046736670580248
 31
0.0
 73
     1
 44
1.0
  0
LINE
  5
3F3A
330
3F2B
100
AcDbEntity
  8
STREFA BEZPIECZEŃSTWA
370
    -2
100
AcDbLine
 10
22.6971038347884
 20
2.560588293152322
 30
0.0
 11
28.89032875226645
 21
2.850355650749861
 31
0.0
  0
INSERT
  5
3F3B
330
3F2B
100
AcDbEntity
  8
STREFA BEZPIECZEŃSTWA
370
    -2
100
AcDbBlockReference
  2
MAR-STRZ
 10
22.6971038347884
 20
2.560588293152322
 30
0.0
 41
0.06
 42
0.06
 43
0.06
 50
2.678789797711587
  0
INSERT
  5
3F3C
330
3F2B
100
AcDbEntity
  8
STREFA BEZPIECZEŃSTWA
370
    -2
100
AcDbBlockReference
  2
MAR-STRZ
 10
28.89032875226645
 20
2.850355650749861
 30
0.0
 41
0.06
 42
0.06
 43
0.06
 50
182.6787897977116
  0
POINT
  5
3F3D
330
3F2B
100
AcDbEntity
  8
Defpoints
 62
     0
100
AcDbPoint
 10
28.89032875226645
 20
2.850355650749861
 30
0.0
  0
POINT
  5
3F3E
330
3F2B
100
AcDbEntity
  8
Defpoints
 62
     0
100
AcDbPoint
 10
22.6971038347884
 20
2.560588293152322
 30
0.0
  0
ENDBLK
  5
3F2D
330
3F2B
100
AcDbEntity
  8
0
100
AcDbBlockEnd
  0
BLOCK
  5
3F42
330
3F41
100
AcDbEntity
  8
0
100
AcDbBlockBegin
  2
*D8
 70
     1
 10
0.0
 20
0.0
 30
0.0
  3
*D8
  1

  0
LINE
  5
3F4C
330
3F41
100
AcDbEntity
  8
STREFA BEZPIECZEŃSTWA
370
    -2
100
AcDbLine
 10
24.4675017640439
 20
4.369036964041074
 30
0.0
 11
27.18068750564351
 21
4.369036964041074
 31
0.0
  0
INSERT
  5
3F4D
330
3F41
100
AcDbEntity
  8
STREFA BEZPIECZEŃSTWA
370
    -2
100
AcDbBlockReference
  2
MAR-STRZ
 10
24.4075017640439
 20
4.369036964041074
 30
0.0
 41
0.06
 42
0.06
 43
0.06
 50
180.0
  0
INSERT
  5
3F4E
330
3F41
100
AcDbEntity
  8
STREFA BEZPIECZEŃSTWA
370
    -2
100
AcDbBlockReference
  2
MAR-STRZ
 10
27.24068750564351
 20
4.369036964041074
 30
0.0
 41
0.06
 42
0.06
 43
0.06
  0
MTEXT
  5
3F4F
330
3F41
100
AcDbEntity
  8
STREFA BEZPIECZEŃSTWA
100
AcDbMText
 10
25.82409463484371
 20
4.581549951054062
 30
0.0
 40
0.18
 41
0.0
 71
     5
 72
     1
  1
\A1;2.85
  7
AR 01 SWIS
 73
     1
 44
1.0
  0
POINT
  5
3F50
330
3F41
100
AcDbEntity
  8
Defpoints
 62
     0
100
AcDbPoint
 10
24.4075017640439
 20
2.722608802153381
 30
0.0
  0
POINT
  5
3F51
330
3F41
100
AcDbEntity
  8
Defpoints
 62
     0
100
AcDbPoint
 10
27.24068750564351
 20
2.722608802153381
 30
0.0
  0
POINT
  5
3F52
330
3F41
100
AcDbEntity
  8
Defpoints
 62
     0
100
AcDbPoint
 10
27.24068750564351
 20
4.369036964041074
 30
0.0
  0
ENDBLK
  5
3F43
330
3F41
100
AcDbEntity
  8
0
100
AcDbBlockEnd
  0
BLOCK
  5
3F7C
330
3F7B
100
AcDbEntity
  8
0
100
AcDbBlockBegin
  2
TerminatorOpen_0.5
 70
     0
 10
0.0
 20
0.0
 30
0.0
  3
TerminatorOpen_0.5
  1

  0
LINE
  5
3F7D
330
3F7B
100
AcDbEntity
  8
0
  6
ByBlock
 62
     0
370
    -2
100
AcDbLine
 10
0.0
 20
0.0
 30
0.0
 11
-1.0
 21
0.0
 31
0.0
  0
LINE
  5
3F7E
330
3F7B
100
AcDbEntity
  8
0
  6
ByBlock
 62
     0
370
    -2
100
AcDbLine
 10
0.0
 20
0.0
 30
0.0
 11
-1.0
 21
0.25
 31
0.0
  0
LINE
  5
3F7F
330
3F7B
100
AcDbEntity
  8
0
  6
ByBlock
 62
     0
370
    -2
100
AcDbLine
 10
0.0
 20
0.0
 30
0.0
 11
-1.0
 21
-0.25
 31
0.0
  0
ENDBLK
  5
3F80
330
3F7B
100
AcDbEntity
  8
0
100
AcDbBlockEnd
  0
BLOCK
  5
5BC1
330
5BAA
100
AcDbEntity
  8
0
100
AcDbBlockBegin
  2
A$C12254DB6
 70
     0
 10
0.0
 20
0.0
 30
0.0
  3
A$C12254DB6
  1

  0
LINE
  5
5BAB
330
5BAA
100
AcDbEntity
  8
0
100
AcDbLine
 10
0.8620296179074884
 20
1.800000002081149
 30
0.0
 11
0.8620296179074884
 21
0.0000000020811506
 31
0.0
  0
LINE
  5
5BAC
330
5BAA
100
AcDbEntity
  8
0
100
AcDbLine
 10
0.8296420075228565
 20
1.800000004162301
 30
0.0
 11
0.8296420075228565
 21
0.0000000041623012
 31
0.0
  0
LINE
  5
5BAD
330
5BAA
100
AcDbEntity
  8
0
100
AcDbLine
 10
0.0323876103846388
 20
1.800000004162301
 30
0.0
 11
0.0323876103846388
 21
0.0000000041623012
 31
0.0
  0
LINE
  5
5BAE
330
5BAA
100
AcDbEntity
  8
0
100
AcDbLine
 10
0.0000000000000071
 20
1.80000000624345
 30
0.0
 11
0.0000000000000071
 21
0.0000000062434518
 31
0.0
  0
LINE
  5
5BAF
330
5BAA
100
AcDbEntity
  8
0
100
AcDbLine
 10
0.3304220474303641
 20
0.9000000020811505
 30
0.0
 11
0.3304220474303641
 21
1.760000002081149
 31
0.0
  0
LINE
  5
5BB0
330
5BAA
100
AcDbEntity
  8
0
100
AcDbLine
 10
0.5304220474303634
 20
1.760000002081149
 30
0.0
 11
0.5304220474303634
 21
0.0400000020811506
 31
0.0
  0
LINE
  5
5BB1
330
5BAA
100
AcDbEntity
  8
0
100
AcDbLine
 10
0.3304220474303641
 20
0.0400000020811506
 30
0.0
 11
0.3304220474303641
 21
0.9000000020811505
 31
0.0
  0
LINE
  5
5BB2
330
5BAA
100
AcDbEntity
  8
0
100
AcDbLine
 10
0.8296420075228565
 20
1.800000002081149
 30
0.0
 11
0.8296420075228565
 21
1.500000002081149
 31
0.0
  0
LINE
  5
5BB3
330
5BAA
100
AcDbEntity
  8
0
100
AcDbLine
 10
0.0323876103846388
 20
1.500000002081149
 30
0.0
 11
0.3304220474303641
 21
1.500000002081149
 31
0.0
  0
LINE
  5
5BB4
330
5BAA
100
AcDbEntity
  8
0
100
AcDbLine
 10
0.5304220474303634
 20
1.500000002081149
 30
0.0
 11
0.8296420075228565
 21
1.500000002081149
 31
0.0
  0
LINE
  5
5BB5
330
5BAA
100
AcDbEntity
  8
0
100
AcDbLine
 10
0.8296420075228565
 20
1.500000002081149
 30
0.0
 11
0.8296420075228565
 21
1.200000002081149
 31
0.0
  0
LINE
  5
5BB6
330
5BAA
100
AcDbEntity
  8
0
100
AcDbLine
 10
0.0323876103846388
 20
1.200000002081149
 30
0.0
 11
0.3304220474303641
 21
1.200000002081149
 31
0.0
  0
LINE
  5
5BB7
330
5BAA
100
AcDbEntity
  8
0
100
AcDbLine
 10
0.5304220474303634
 20
1.200000002081149
 30
0.0
 11
0.8296420075228565
 21
1.200000002081149
 31
0.0
  0
LINE
  5
5BB8
330
5BAA
100
AcDbEntity
  8
0
100
AcDbLine
 10
0.8296420075228565
 20
1.200000002081149
 30
0.0
 11
0.8296420075228565
 21
0.9000000020811505
 31
0.0
  0
LINE
  5
5BB9
330
5BAA
100
AcDbEntity
  8
0
100
AcDbLine
 10
0.0323876103846388
 20
0.9000000020811505
 30
0.0
 11
0.3304220474303641
 21
0.9000000020811505
 31
0.0
  0
LINE
  5
5BBA
330
5BAA
100
AcDbEntity
  8
0
100
AcDbLine
 10
0.5304220474303634
 20
0.9000000020811505
 30
0.0
 11
0.8296420075228565
 21
0.9000000020811505
 31
0.0
  0
LINE
  5
5BBB
330
5BAA
100
AcDbEntity
  8
0
100
AcDbLine
 10
0.0323876103846388
 20
0.6000000020811505
 30
0.0
 11
0.3304220474303641
 21
0.6000000020811505
 31
0.0
  0
LINE
  5
5BBC
330
5BAA
100
AcDbEntity
  8
0
100
AcDbLine
 10
0.5304220474303634
 20
0.6000000020811505
 30
0.0
 11
0.8296420075228565
 21
0.6000000020811505
 31
0.0
  0
LINE
  5
5BBD
330
5BAA
100
AcDbEntity
  8
0
100
AcDbLine
 10
0.0323876103846388
 20
0.3000000020811504
 30
0.0
 11
0.3304220474303641
 21
0.3000000020811504
 31
0.0
  0
LINE
  5
5BBE
330
5BAA
100
AcDbEntity
  8
0
100
AcDbLine
 10
0.5304220474303634
 20
0.3000000020811504
 30
0.0
 11
0.8296420075228565
 21
0.3000000020811504
 31
0.0
  0
ENDBLK
  5
5BC2
330
5BAA
100
AcDbEntity
  8
0
100
AcDbBlockEnd
  0
BLOCK
  5
5DA5
330
5D9D
100
AcDbEntity
  8
0
100
AcDbBlockBegin
  2
A$C64093FDB
 70
     0
 10
0.0
 20
0.0
 30
0.0
  3
A$C64093FDB
  1

  0
LINE
  5
5D9E
330
5D9D
100
AcDbEntity
  8
0
100
AcDbLine
 10
1.200000018274363
 20
-0.0000000035981229
 30
0.0
 11
1.200000018274363
 21
0.2992199564943705
 31
0.0
  0
LINE
  5
5D9F
330
5D9D
100
AcDbEntity
  8
0
100
AcDbLine
 10
0.900000018274369
 20
-0.0000000035981229
 30
0.0
 11
0.900000018274369
 21
0.2992199564943705
 31
0.0
  0
LINE
  5
5DA0
330
5D9D
100
AcDbEntity
  8
0
100
AcDbLine
 10
0.6000000182743685
 20
-0.0000000035981229
 30
0.0
 11
0.6000000182743685
 21
0.2992199564943705
 31
0.0
  0
LINE
  5
5DA1
330
5D9D
100
AcDbEntity
  8
0
100
AcDbLine
 10
0.3000000182743676
 20
-0.0000000035981229
 30
0.0
 11
0.3000000182743676
 21
0.2992199564943705
 31
0.0
  0
LINE
  5
5DA2
330
5D9D
100
AcDbEntity
  8
0
100
AcDbLine
 10
0.0000000182743669
 20
-0.0000000035981229
 30
0.0
 11
0.0000000182743669
 21
0.2992199564943705
 31
0.0
  0
ENDBLK
  5
5DA6
330
5D9D
100
AcDbEntity
  8
0
100
AcDbBlockEnd
  0
BLOCK
  5
5E20
330
5E1F
100
AcDbEntity
  8
0
100
AcDbBlockBegin
  2
*D12
 70
     1
 10
0.0
 20
0.0
 30
0.0
  3
*D12
  1

  0
LINE
  5
5E2A
330
5E1F
100
AcDbEntity
  8
0
370
    -2
100
AcDbLine
 10
18.18628147245276
 20
-1.674603311054021
 30
0.0
 11
24.36628147245277
 21
-1.674603311054021
 31
0.0
  0
INSERT
  5
5E2B
330
5E1F
100
AcDbEntity
  8
0
370
    -2
100
AcDbBlockReference
  2
MAR-STRZ
 10
18.12628147245277
 20
-1.674603311054021
 30
0.0
 41
0.06
 42
0.06
 43
0.06
 50
180.0
  0
INSERT
  5
5E2C
330
5E1F
100
AcDbEntity
  8
0
370
    -2
100
AcDbBlockReference
  2
MAR-STRZ
 10
24.42628147245276
 20
-1.674603311054021
 30
0.0
 41
0.06
 42
0.06
 43
0.06
  0
MTEXT
  5
5E2D
330
5E1F
100
AcDbEntity
  8
0
100
AcDbMText
 10
21.27628147245276
 20
-1.462207207157918
 30
0.0
 40
0.18
 41
0.0
 71
     5
 72
     1
  1
\A1;6.30
  7
AR 01 SWIS
 73
     1
 44
1.0
  0
POINT
  5
5E2E
330
5E1F
100
AcDbEntity
  8
Defpoints
 62
     0
100
AcDbPoint
 10
18.12628147245277
 20
-0.0789590151509505
 30
0.0
  0
POINT
  5
5E2F
330
5E1F
100
AcDbEntity
  8
Defpoints
 62
     0
100
AcDbPoint
 10
24.42628147245276
 20
-0.0789590151509505
 30
0.0
  0
POINT
  5
5E30
330
5E1F
100
AcDbEntity
  8
Defpoints
 62
     0
100
AcDbPoint
 10
24.42628147245276
 20
-1.674603311054021
 30
0.0
  0
ENDBLK
  5
5E21
330
5E1F
100
AcDbEntity
  8
0
100
AcDbBlockEnd
  0
BLOCK
  5
5E70
330
5E6F
100
AcDbEntity
  8
0
100
AcDbBlockBegin
  2
*D13
 70
     1
 10
0.0
 20
0.0
 30
0.0
  3
*D13
  1

  0
LINE
  5
5E7A
330
5E6F
100
AcDbEntity
  8
0
370
    -2
100
AcDbLine
 10
16.68628147245276
 20
4.914246327661388
 30
0.0
 11
25.86628147245277
 21
4.914246327661388
 31
0.0
  0
INSERT
  5
5E7B
330
5E6F
100
AcDbEntity
  8
0
370
    -2
100
AcDbBlockReference
  2
MAR-STRZ
 10
16.62628147245276
 20
4.914246327661388
 30
0.0
 41
0.06
 42
0.06
 43
0.06
 50
180.0
  0
INSERT
  5
5E7C
330
5E6F
100
AcDbEntity
  8
0
370
    -2
100
AcDbBlockReference
  2
MAR-STRZ
 10
25.92628147245277
 20
4.914246327661388
 30
0.0
 41
0.06
 42
0.06
 43
0.06
  0
MTEXT
  5
5E7D
330
5E6F
100
AcDbEntity
  8
0
100
AcDbMText
 10
21.27628147245276
 20
5.126642431557492
 30
0.0
 40
0.18
 41
0.0
 71
     5
 72
     1
  1
\A1;9.30
  7
AR 01 SWIS
 73
     1
 44
1.0
  0
POINT
  5
5E7E
330
5E6F
100
AcDbEntity
  8
Defpoints
 62
     0
100
AcDbPoint
 10
16.62628147245276
 20
2.482361327993789
 30
0.0
  0
POINT
  5
5E7F
330
5E6F
100
AcDbEntity
  8
Defpoints
 62
     0
100
AcDbPoint
 10
25.92628147245277
 20
2.482361327993789
 30
0.0
  0
POINT
  5
5E80
330
5E6F
100
AcDbEntity
  8
Defpoints
 62
     0
100
AcDbPoint
 10
25.92628147245277
 20
4.914246327661388
 30
0.0
  0
ENDBLK
  5
5E71
330
5E6F
100
AcDbEntity
  8
0
100
AcDbBlockEnd
  0
BLOCK
  5
5E84
330
5E83
100
AcDbEntity
  8
0
100
AcDbBlockBegin
  2
*D14
 70
     1
 10
0.0
 20
0.0
 30
0.0
  3
*D14
  1

  0
LINE
  5
5E8E
330
5E83
100
AcDbEntity
  8
0
370
    -2
100
AcDbLine
 10
26.75591125756231
 20
4.131040984434151
 30
0.0
 11
26.75591125756231
 21
-2.34895901515095
 31
0.0
  0
INSERT
  5
5E8F
330
5E83
100
AcDbEntity
  8
0
370
    -2
100
AcDbBlockReference
  2
MAR-STRZ
 10
26.75591125756231
 20
4.191040984434152
 30
0.0
 41
0.06
 42
0.06
 43
0.06
 50
90.0
  0
INSERT
  5
5E90
330
5E83
100
AcDbEntity
  8
0
370
    -2
100
AcDbBlockReference
  2
MAR-STRZ
 10
26.75591125756231
 20
-2.408959015150951
 30
0.0
 41
0.06
 42
0.06
 43
0.06
 50
270.0
  0
MTEXT
  5
5E91
330
5E83
100
AcDbEntity
  8
0
100
AcDbMText
 10
26.54351515366621
 20
0.8910409846416047
 30
0.0
 40
0.18
 41
0.0
 71
     5
 72
     1
  1
\A1;6.60
  7
AR 01 SWIS
 11
0.0000000000000001
 21
1.0
 31
0.0
 73
     1
 44
1.0
  0
POINT
  5
5E92
330
5E83
100
AcDbEntity
  8
Defpoints
 62
     0
100
AcDbPoint
 10
24.21760181601241
 20
4.191040984434152
 30
0.0
  0
POINT
  5
5E93
330
5E83
100
AcDbEntity
  8
Defpoints
 62
     0
100
AcDbPoint
 10
24.21760181601241
 20
-2.408959015150951
 30
0.0
  0
POINT
  5
5E94
330
5E83
100
AcDbEntity
  8
Defpoints
 62
     0
100
AcDbPoint
 10
26.75591125756231
 20
-2.408959015150951
 30
0.0
  0
ENDBLK
  5
5E85
330
5E83
100
AcDbEntity
  8
0
100
AcDbBlockEnd
  0
ENDSEC
  0
SECTION
  2
ENTITIES
  0
LINE
  5
5B30
330
1F
100
AcDbEntity
  8
0
100
AcDbLine
 10
18.12628147245277
 20
1.791040984849049
 30
0.0
 11
18.12628147245277
 21
1.861040984849049
 31
0.0
  0
LINE
  5
5B31
330
1F
100
AcDbEntity
  8
0
100
AcDbLine
 10
18.12628147245277
 20
1.861040984849049
 30
0.0
 11
18.19628147245277
 21
1.861040984849049
 31
0.0
  0
LINE
  5
5B32
330
1F
100
AcDbEntity
  8
0
100
AcDbLine
 10
18.19628147245277
 20
1.861040984849049
 30
0.0
 11
18.19628147245277
 21
1.791040984849049
 31
0.0
  0
LINE
  5
5B33
330
1F
100
AcDbEntity
  8
0
100
AcDbLine
 10
18.19628147245277
 20
1.791040984849049
 30
0.0
 11
18.12628147245277
 21
1.791040984849049
 31
0.0
  0
LINE
  5
5B34
330
1F
100
AcDbEntity
  8
0
100
AcDbLine
 10
19.02628147245276
 20
2.691040984849048
 30
0.0
 11
18.95628147245276
 21
2.691040984849048
 31
0.0
  0
LINE
  5
5B35
330
1F
100
AcDbEntity
  8
0
100
AcDbLine
 10
18.95628147245276
 20
2.691040984849048
 30
0.0
 11
18.95628147245276
 21
2.621040984849048
 31
0.0
  0
LINE
  5
5B36
330
1F
100
AcDbEntity
  8
0
100
AcDbLine
 10
18.95628147245276
 20
2.621040984849048
 30
0.0
 11
19.02628147245276
 21
2.621040984849048
 31
0.0
  0
LINE
  5
5B37
330
1F
100
AcDbEntity
  8
0
100
AcDbLine
 10
19.02628147245276
 20
2.621040984849048
 30
0.0
 11
19.02628147245276
 21
2.691040984849048
 31
0.0
  0
LINE
  5
5B44
330
1F
100
AcDbEntity
  8
0
100
AcDbLine
 10
18.1679972012053
 20
1.889325256096508
 30
0.0
 11
18.9279972012053
 21
2.649325256096509
 31
0.0
  0
LINE
  5
5B45
330
1F
100
AcDbEntity
  8
0
100
AcDbLine
 10
18.9279972012053
 20
2.649325256096509
 30
0.0
 11
18.95628147245276
 21
2.67760952734397
 31
0.0
  0
LINE
  5
5B46
330
1F
100
AcDbEntity
  8
0
100
AcDbLine
 10
18.1679972012053
 20
1.889325256096508
 30
0.0
 11
18.13971292995784
 21
1.861040984849049
 31
0.0
  0
LINE
  5
5B47
330
1F
100
AcDbEntity
  8
0
100
AcDbLine
 10
19.02628147245276
 20
1.791040984849049
 30
0.0
 11
18.95628147245276
 21
1.791040984849049
 31
0.0
  0
LINE
  5
5B48
330
1F
100
AcDbEntity
  8
0
100
AcDbLine
 10
18.95628147245276
 20
1.791040984849049
 30
0.0
 11
18.95628147245276
 21
1.861040984849049
 31
0.0
  0
LINE
  5
5B49
330
1F
100
AcDbEntity
  8
0
100
AcDbLine
 10
18.95628147245276
 20
1.861040984849049
 30
0.0
 11
19.02628147245276
 21
1.861040984849049
 31
0.0
  0
LINE
  5
5B4A
330
1F
100
AcDbEntity
  8
0
100
AcDbLine
 10
19.02628147245276
 20
1.791040984849049
 30
0.0
 11
19.02628147245276
 21
1.861040984849049
 31
0.0
  0
LINE
  5
5B4B
330
1F
100
AcDbEntity
  8
0
100
AcDbLine
 10
19.02628147245276
 20
1.861040984849049
 30
0.0
 11
19.00628147245276
 21
1.861040984849049
 31
0.0
  0
LINE
  5
5B4C
330
1F
100
AcDbEntity
  8
0
100
AcDbLine
 10
19.00628147245276
 20
1.861040984849049
 30
0.0
 11
19.00628147245277
 21
2.621040984849048
 31
0.0
  0
LINE
  5
5B4D
330
1F
100
AcDbEntity
  8
0
100
AcDbLine
 10
18.95628147245276
 20
1.791040984849049
 30
0.0
 11
18.95628147245276
 21
1.811040984849049
 31
0.0
  0
LINE
  5
5B4E
330
1F
100
AcDbEntity
  8
0
100
AcDbLine
 10
18.95628147245276
 20
1.811040984849049
 30
0.0
 11
18.19628147245277
 21
1.81104098484905
 31
0.0
  0
LINE
  5
5B55
330
1F
100
AcDbEntity
  8
0
100
AcDbLine
 10
18.12628147245277
 20
-0.0089590151509504
 30
0.0
 11
18.12628147245277
 21
-0.0789590151509505
 31
0.0
  0
LINE
  5
5B56
330
1F
100
AcDbEntity
  8
0
100
AcDbLine
 10
18.12628147245277
 20
-0.0789590151509505
 30
0.0
 11
18.19628147245277
 21
-0.0789590151509505
 31
0.0
  0
LINE
  5
5B57
330
1F
100
AcDbEntity
  8
0
100
AcDbLine
 10
18.19628147245277
 20
-0.0789590151509505
 30
0.0
 11
18.19628147245277
 21
-0.0089590151509504
 31
0.0
  0
LINE
  5
5B58
330
1F
100
AcDbEntity
  8
0
100
AcDbLine
 10
18.19628147245277
 20
-0.0089590151509504
 30
0.0
 11
18.12628147245277
 21
-0.0089590151509504
 31
0.0
  0
LINE
  5
5B59
330
1F
100
AcDbEntity
  8
0
100
AcDbLine
 10
19.02628147245276
 20
-0.9089590151509503
 30
0.0
 11
18.95628147245276
 21
-0.9089590151509503
 31
0.0
  0
LINE
  5
5B5A
330
1F
100
AcDbEntity
  8
0
100
AcDbLine
 10
18.95628147245276
 20
-0.9089590151509503
 30
0.0
 11
18.95628147245276
 21
-0.8389590151509505
 31
0.0
  0
LINE
  5
5B5B
330
1F
100
AcDbEntity
  8
0
100
AcDbLine
 10
18.95628147245276
 20
-0.8389590151509505
 30
0.0
 11
19.02628147245276
 21
-0.8389590151509505
 31
0.0
  0
LINE
  5
5B5C
330
1F
100
AcDbEntity
  8
0
100
AcDbLine
 10
19.02628147245276
 20
-0.8389590151509505
 30
0.0
 11
19.02628147245276
 21
-0.9089590151509503
 31
0.0
  0
LINE
  5
5B5D
330
1F
100
AcDbEntity
  8
0
100
AcDbLine
 10
18.1679972012053
 20
-0.1072432863984118
 30
0.0
 11
18.9279972012053
 21
-0.8672432863984111
 31
0.0
  0
LINE
  5
5B5E
330
1F
100
AcDbEntity
  8
0
100
AcDbLine
 10
18.9279972012053
 20
-0.8672432863984111
 30
0.0
 11
18.95628147245276
 21
-0.8955275576458722
 31
0.0
  0
LINE
  5
5B5F
330
1F
100
AcDbEntity
  8
0
100
AcDbLine
 10
18.1679972012053
 20
-0.1072432863984118
 30
0.0
 11
18.13971292995784
 21
-0.0789590151509505
 31
0.0
  0
LINE
  5
5B60
330
1F
100
AcDbEntity
  8
0
100
AcDbLine
 10
19.02628147245276
 20
-0.0089590151509504
 30
0.0
 11
18.95628147245276
 21
-0.0089590151509504
 31
0.0
  0
LINE
  5
5B61
330
1F
100
AcDbEntity
  8
0
100
AcDbLine
 10
18.95628147245276
 20
-0.0089590151509504
 30
0.0
 11
18.95628147245276
 21
-0.0789590151509505
 31
0.0
  0
LINE
  5
5B62
330
1F
100
AcDbEntity
  8
0
100
AcDbLine
 10
18.95628147245276
 20
-0.0789590151509505
 30
0.0
 11
19.02628147245276
 21
-0.0789590151509505
 31
0.0
  0
LINE
  5
5B63
330
1F
100
AcDbEntity
  8
0
100
AcDbLine
 10
19.02628147245276
 20
-0.0089590151509504
 30
0.0
 11
19.02628147245276
 21
-0.0789590151509505
 31
0.0
  0
LINE
  5
5B64
330
1F
100
AcDbEntity
  8
0
100
AcDbLine
 10
19.02628147245276
 20
-0.0789590151509505
 30
0.0
 11
19.00628147245276
 21
-0.0789590151509505
 31
0.0
  0
LINE
  5
5B65
330
1F
100
AcDbEntity
  8
0
100
AcDbLine
 10
19.00628147245276
 20
-0.0789590151509505
 30
0.0
 11
19.00628147245277
 21
-0.8389590151509505
 31
0.0
  0
LINE
  5
5B66
330
1F
100
AcDbEntity
  8
0
100
AcDbLine
 10
18.95628147245276
 20
-0.0089590151509504
 30
0.0
 11
18.95628147245276
 21
-0.0289590151509505
 31
0.0
  0
LINE
  5
5B67
330
1F
100
AcDbEntity
  8
0
100
AcDbLine
 10
18.95628147245276
 20
-0.0289590151509505
 30
0.0
 11
18.19628147245277
 21
-0.028959015150952
 31
0.0
  0
LINE
  5
5B68
330
1F
100
AcDbEntity
  8
0
100
AcDbLine
 10
19.00788904292989
 20
1.791040984849049
 30
0.0
 11
19.00788904292989
 21
-0.0089590151509504
 31
0.0
  0
LINE
  5
5B70
330
1F
100
AcDbEntity
  8
0
100
AcDbLine
 10
18.97550143254526
 20
1.791040986930198
 30
0.0
 11
18.97550143254526
 21
-0.0089590130697998
 31
0.0
  0
LINE
  5
5B79
330
1F
100
AcDbEntity
  8
0
100
AcDbLine
 10
18.17824703540704
 20
1.791040986930198
 30
0.0
 11
18.17824703540704
 21
-0.0089590130697998
 31
0.0
  0
LINE
  5
5B7A
330
1F
100
AcDbEntity
  8
0
100
AcDbLine
 10
18.1458594250224
 20
1.791040989011349
 30
0.0
 11
18.1458594250224
 21
-0.0089590109886493
 31
0.0
  0
LINE
  5
5B80
330
1F
100
AcDbEntity
  8
0
100
AcDbLine
 10
18.47628147245276
 20
0.8910409848490495
 30
0.0
 11
18.47628147245276
 21
1.751040984849049
 31
0.0
  0
LINE
  5
5B81
330
1F
100
AcDbEntity
  8
0
100
AcDbLine
 10
18.47628147245276
 20
1.751040984849049
 30
0.0
 11
18.67628147245276
 21
1.751040984849049
 31
0.0
  0
LINE
  5
5B82
330
1F
100
AcDbEntity
  8
0
100
AcDbLine
 10
18.67628147245276
 20
1.751040984849049
 30
0.0
 11
18.67628147245276
 21
0.0310409848490496
 31
0.0
  0
LINE
  5
5B83
330
1F
100
AcDbEntity
  8
0
100
AcDbLine
 10
18.67628147245276
 20
0.0310409848490496
 30
0.0
 11
18.47628147245276
 21
0.0310409848490496
 31
0.0
  0
LINE
  5
5B84
330
1F
100
AcDbEntity
  8
0
100
AcDbLine
 10
18.47628147245276
 20
0.0310409848490496
 30
0.0
 11
18.47628147245276
 21
0.8910409848490495
 31
0.0
  0
LINE
  5
5B85
330
1F
100
AcDbEntity
  8
0
100
AcDbLine
 10
18.97550143254526
 20
1.791040984849049
 30
0.0
 11
18.97550143254526
 21
1.491040984849049
 31
0.0
  0
LINE
  5
5B88
330
1F
100
AcDbEntity
  8
0
100
AcDbLine
 10
18.17824703540704
 20
1.491040984849049
 30
0.0
 11
18.47628147245276
 21
1.491040984849049
 31
0.0
  0
LINE
  5
5B8A
330
1F
100
AcDbEntity
  8
0
100
AcDbLine
 10
18.67628147245276
 20
1.491040984849049
 30
0.0
 11
18.97550143254526
 21
1.491040984849049
 31
0.0
  0
LINE
  5
5B8B
330
1F
100
AcDbEntity
  8
0
100
AcDbLine
 10
18.97550143254526
 20
1.491040984849049
 30
0.0
 11
18.97550143254526
 21
1.191040984849049
 31
0.0
  0
LINE
  5
5B8E
330
1F
100
AcDbEntity
  8
0
100
AcDbLine
 10
18.17824703540704
 20
1.191040984849049
 30
0.0
 11
18.47628147245276
 21
1.191040984849049
 31
0.0
  0
LINE
  5
5B90
330
1F
100
AcDbEntity
  8
0
100
AcDbLine
 10
18.67628147245276
 20
1.191040984849049
 30
0.0
 11
18.97550143254526
 21
1.191040984849049
 31
0.0
  0
LINE
  5
5B91
330
1F
100
AcDbEntity
  8
0
100
AcDbLine
 10
18.97550143254526
 20
1.191040984849049
 30
0.0
 11
18.97550143254526
 21
0.8910409848490495
 31
0.0
  0
LINE
  5
5B94
330
1F
100
AcDbEntity
  8
0
100
AcDbLine
 10
18.17824703540704
 20
0.8910409848490495
 30
0.0
 11
18.47628147245276
 21
0.8910409848490495
 31
0.0
  0
LINE
  5
5B97
330
1F
100
AcDbEntity
  8
0
100
AcDbLine
 10
18.67628147245276
 20
0.8910409848490495
 30
0.0
 11
18.97550143254526
 21
0.8910409848490495
 31
0.0
  0
LINE
  5
5BA6
330
1F
100
AcDbEntity
  8
0
100
AcDbLine
 10
18.17824703540704
 20
0.5910409848490497
 30
0.0
 11
18.47628147245276
 21
0.5910409848490497
 31
0.0
  0
LINE
  5
5BA7
330
1F
100
AcDbEntity
  8
0
100
AcDbLine
 10
18.67628147245276
 20
0.5910409848490497
 30
0.0
 11
18.97550143254526
 21
0.5910409848490497
 31
0.0
  0
LINE
  5
5BA8
330
1F
100
AcDbEntity
  8
0
100
AcDbLine
 10
18.17824703540704
 20
0.2910409848490494
 30
0.0
 11
18.47628147245276
 21
0.2910409848490494
 31
0.0
  0
LINE
  5
5BA9
330
1F
100
AcDbEntity
  8
0
100
AcDbLine
 10
18.67628147245276
 20
0.2910409848490494
 30
0.0
 11
18.97550143254526
 21
0.2910409848490494
 31
0.0
  0
LINE
  5
5BE0
330
1F
100
AcDbEntity
  8
0
100
AcDbLine
 10
19.00628147245277
 20
-0.0789590151509525
 30
0.0
 11
19.00628147245277
 21
-0.8389590151509505
 31
0.0
  0
LINE
  5
5BE1
330
1F
100
AcDbEntity
  8
0
100
AcDbLine
 10
19.02628147245277
 20
-0.0273514446738286
 30
0.0
 11
20.82628147245277
 21
-0.0273514446738286
 31
0.0
  0
LINE
  5
5BE2
330
1F
100
AcDbEntity
  8
0
100
AcDbLine
 10
19.02628147037162
 20
-0.0597390550584602
 30
0.0
 11
20.82628147037162
 21
-0.0597390550584602
 31
0.0
  0
LINE
  5
5BE3
330
1F
100
AcDbEntity
  8
0
100
AcDbLine
 10
19.02628147037162
 20
-0.8569934521966782
 30
0.0
 11
20.82628147037162
 21
-0.8569934521966782
 31
0.0
  0
LINE
  5
5BE4
330
1F
100
AcDbEntity
  8
0
100
AcDbLine
 10
19.02628146829047
 20
-0.8893810625813099
 30
0.0
 11
20.82628146829047
 21
-0.8893810625813099
 31
0.0
  0
LINE
  5
5BEA
330
1F
100
AcDbEntity
  8
0
100
AcDbLine
 10
19.02628147245277
 20
-0.0597390550584602
 30
0.0
 11
19.32628147245277
 21
-0.0597390550584602
 31
0.0
  0
LINE
  5
5BEB
330
1F
100
AcDbEntity
  8
0
100
AcDbLine
 10
19.32628147245277
 20
-0.8569934521966782
 30
0.0
 11
19.32628147245277
 21
-0.5589590151509533
 31
0.0
  0
LINE
  5
5BEC
330
1F
100
AcDbEntity
  8
0
100
AcDbLine
 10
19.32628147245277
 20
-0.3589590151509536
 30
0.0
 11
19.32628147245277
 21
-0.0597390550584602
 31
0.0
  0
LINE
  5
5BED
330
1F
100
AcDbEntity
  8
0
100
AcDbLine
 10
19.32628147245277
 20
-0.0597390550584602
 30
0.0
 11
19.62628147245277
 21
-0.0597390550584602
 31
0.0
  0
LINE
  5
5BEE
330
1F
100
AcDbEntity
  8
0
100
AcDbLine
 10
19.62628147245277
 20
-0.8569934521966782
 30
0.0
 11
19.62628147245277
 21
-0.5589590151509533
 31
0.0
  0
LINE
  5
5BEF
330
1F
100
AcDbEntity
  8
0
100
AcDbLine
 10
19.62628147245277
 20
-0.3589590151509536
 30
0.0
 11
19.62628147245277
 21
-0.0597390550584602
 31
0.0
  0
LINE
  5
5BF0
330
1F
100
AcDbEntity
  8
0
100
AcDbLine
 10
19.62628147245277
 20
-0.0597390550584602
 30
0.0
 11
19.92628147245277
 21
-0.0597390550584602
 31
0.0
  0
LINE
  5
5BF1
330
1F
100
AcDbEntity
  8
0
100
AcDbLine
 10
19.92628147245277
 20
-0.8569934521966782
 30
0.0
 11
19.92628147245277
 21
-0.5589590151509533
 31
0.0
  0
LINE
  5
5BF2
330
1F
100
AcDbEntity
  8
0
100
AcDbLine
 10
19.92628147245277
 20
-0.3589590151509536
 30
0.0
 11
19.92628147245277
 21
-0.0597390550584602
 31
0.0
  0
LINE
  5
5BF3
330
1F
100
AcDbEntity
  8
0
100
AcDbLine
 10
20.22628147245277
 20
-0.8569934521966782
 30
0.0
 11
20.22628147245277
 21
-0.5589590151509533
 31
0.0
  0
LINE
  5
5BF4
330
1F
100
AcDbEntity
  8
0
100
AcDbLine
 10
20.22628147245277
 20
-0.3589590151509536
 30
0.0
 11
20.22628147245277
 21
-0.0597390550584602
 31
0.0
  0
LINE
  5
5BF5
330
1F
100
AcDbEntity
  8
0
100
AcDbLine
 10
20.52628147245277
 20
-0.8569934521966782
 30
0.0
 11
20.52628147245277
 21
-0.5589590151509533
 31
0.0
  0
LINE
  5
5BF6
330
1F
100
AcDbEntity
  8
0
100
AcDbLine
 10
20.52628147245277
 20
-0.3589590151509536
 30
0.0
 11
20.52628147245277
 21
-0.0597390550584602
 31
0.0
  0
LINE
  5
5C02
330
1F
100
AcDbEntity
  8
0
100
AcDbLine
 10
19.3262814703263
 20
-0.5589590141449548
 30
0.0
 11
19.3262814703263
 21
-0.2597390540524613
 31
0.0
  0
LINE
  5
5C03
330
1F
100
AcDbEntity
  8
0
100
AcDbLine
 10
19.62628147032631
 20
-0.5589590141449548
 30
0.0
 11
19.62628147032631
 21
-0.2597390540524613
 31
0.0
  0
LINE
  5
5C04
330
1F
100
AcDbEntity
  8
0
100
AcDbLine
 10
19.92628147032631
 20
-0.5589590141449548
 30
0.0
 11
19.92628147032631
 21
-0.2597390540524613
 31
0.0
  0
LINE
  5
5C05
330
1F
100
AcDbEntity
  8
0
100
AcDbLine
 10
20.22628147032631
 20
-0.5589590141449548
 30
0.0
 11
20.22628147032631
 21
-0.2597390540524613
 31
0.0
  0
LINE
  5
5C06
330
1F
100
AcDbEntity
  8
0
100
AcDbLine
 10
20.52628147032631
 20
-0.5589590141449548
 30
0.0
 11
20.52628147032631
 21
-0.2597390540524613
 31
0.0
  0
LINE
  5
5C1F
330
1F
100
AcDbEntity
  8
0
100
AcDbLine
 10
20.82628147245277
 20
-0.9089590151509503
 30
0.0
 11
20.82628147245277
 21
-0.83895901515095
 31
0.0
  0
LINE
  5
5C20
330
1F
100
AcDbEntity
  8
0
100
AcDbLine
 10
20.82628147245277
 20
-0.83895901515095
 30
0.0
 11
20.89628147245277
 21
-0.83895901515095
 31
0.0
  0
LINE
  5
5C21
330
1F
100
AcDbEntity
  8
0
100
AcDbLine
 10
20.89628147245277
 20
-0.83895901515095
 30
0.0
 11
20.89628147245277
 21
-0.9089590151509503
 31
0.0
  0
LINE
  5
5C22
330
1F
100
AcDbEntity
  8
0
100
AcDbLine
 10
20.89628147245277
 20
-0.9089590151509503
 30
0.0
 11
20.82628147245277
 21
-0.9089590151509503
 31
0.0
  0
LINE
  5
5C23
330
1F
100
AcDbEntity
  8
0
100
AcDbLine
 10
21.72628147245276
 20
-0.0089590151509504
 30
0.0
 11
21.65628147245277
 21
-0.0089590151509504
 31
0.0
  0
LINE
  5
5C24
330
1F
100
AcDbEntity
  8
0
100
AcDbLine
 10
21.65628147245277
 20
-0.0089590151509504
 30
0.0
 11
21.65628147245277
 21
-0.0789590151509503
 31
0.0
  0
LINE
  5
5C25
330
1F
100
AcDbEntity
  8
0
100
AcDbLine
 10
21.65628147245277
 20
-0.0789590151509503
 30
0.0
 11
21.72628147245276
 21
-0.0789590151509503
 31
0.0
  0
LINE
  5
5C26
330
1F
100
AcDbEntity
  8
0
100
AcDbLine
 10
21.72628147245276
 20
-0.0789590151509503
 30
0.0
 11
21.72628147245276
 21
-0.0089590151509504
 31
0.0
  0
LINE
  5
5C2A
330
1F
100
AcDbEntity
  8
0
100
AcDbLine
 10
21.72628147245276
 20
-0.9089590151509503
 30
0.0
 11
21.65628147245277
 21
-0.9089590151509503
 31
0.0
  0
LINE
  5
5C2B
330
1F
100
AcDbEntity
  8
0
100
AcDbLine
 10
21.65628147245277
 20
-0.9089590151509503
 30
0.0
 11
21.65628147245277
 21
-0.83895901515095
 31
0.0
  0
LINE
  5
5C2C
330
1F
100
AcDbEntity
  8
0
100
AcDbLine
 10
21.65628147245277
 20
-0.83895901515095
 30
0.0
 11
21.72628147245276
 21
-0.83895901515095
 31
0.0
  0
LINE
  5
5C2D
330
1F
100
AcDbEntity
  8
0
100
AcDbLine
 10
21.72628147245276
 20
-0.9089590151509503
 30
0.0
 11
21.72628147245276
 21
-0.83895901515095
 31
0.0
  0
LINE
  5
5C2E
330
1F
100
AcDbEntity
  8
0
100
AcDbLine
 10
21.72628147245276
 20
-0.83895901515095
 30
0.0
 11
21.70628147245277
 21
-0.83895901515095
 31
0.0
  0
LINE
  5
5C2F
330
1F
100
AcDbEntity
  8
0
100
AcDbLine
 10
21.70628147245277
 20
-0.83895901515095
 30
0.0
 11
21.70628147245277
 21
-0.0789590151509503
 31
0.0
  0
LINE
  5
5C30
330
1F
100
AcDbEntity
  8
0
100
AcDbLine
 10
21.65628147245277
 20
-0.8889590151509503
 30
0.0
 11
20.89628147245277
 21
-0.8889590151509485
 31
0.0
  0
LINE
  5
5C48
330
1F
100
AcDbEntity
  8
0
100
AcDbLine
 10
21.72628147245276
 20
-0.0089590151509504
 30
0.0
 11
21.72628147245276
 21
-0.0789590151509503
 31
0.0
  0
LINE
  5
5C49
330
1F
100
AcDbEntity
  8
0
100
AcDbLine
 10
21.72628147245276
 20
-0.0789590151509503
 30
0.0
 11
21.65628147245277
 21
-0.0789590151509503
 31
0.0
  0
LINE
  5
5C4A
330
1F
100
AcDbEntity
  8
0
100
AcDbLine
 10
21.65628147245277
 20
-0.0789590151509503
 30
0.0
 11
21.65628147245277
 21
-0.0089590151509504
 31
0.0
  0
LINE
  5
5C4B
330
1F
100
AcDbEntity
  8
0
100
AcDbLine
 10
21.65628147245277
 20
-0.0089590151509504
 30
0.0
 11
21.72628147245276
 21
-0.0089590151509504
 31
0.0
  0
LINE
  5
5C4C
330
1F
100
AcDbEntity
  8
0
100
AcDbLine
 10
20.89628147245277
 20
-0.9089590151509499
 30
0.0
 11
20.89628147245277
 21
-0.83895901515095
 31
0.0
  0
LINE
  5
5C4D
330
1F
100
AcDbEntity
  8
0
100
AcDbLine
 10
20.89628147245277
 20
-0.83895901515095
 30
0.0
 11
20.82628147245277
 21
-0.83895901515095
 31
0.0
  0
LINE
  5
5C4E
330
1F
100
AcDbEntity
  8
0
100
AcDbLine
 10
20.82628147245277
 20
-0.83895901515095
 30
0.0
 11
20.82628147245277
 21
-0.9089590151509499
 31
0.0
  0
LINE
  5
5C52
330
1F
100
AcDbEntity
  8
0
100
AcDbLine
 10
20.82628147245277
 20
-0.0089590151509502
 30
0.0
 11
20.89628147245277
 21
-0.0089590151509502
 31
0.0
  0
LINE
  5
5C53
330
1F
100
AcDbEntity
  8
0
100
AcDbLine
 10
20.89628147245277
 20
-0.0089590151509502
 30
0.0
 11
20.89628147245277
 21
-0.0789590151509503
 31
0.0
  0
LINE
  5
5C54
330
1F
100
AcDbEntity
  8
0
100
AcDbLine
 10
20.89628147245277
 20
-0.0789590151509503
 30
0.0
 11
20.82628147245277
 21
-0.0789590151509503
 31
0.0
  0
LINE
  5
5C55
330
1F
100
AcDbEntity
  8
0
100
AcDbLine
 10
20.82628147245277
 20
-0.0089590151509502
 30
0.0
 11
20.82628147245277
 21
-0.0789590151509503
 31
0.0
  0
LINE
  5
5C56
330
1F
100
AcDbEntity
  8
0
100
AcDbLine
 10
20.82628147245277
 20
-0.0789590151509503
 30
0.0
 11
20.84628147245277
 21
-0.0789590151509503
 31
0.0
  0
LINE
  5
5C57
330
1F
100
AcDbEntity
  8
0
100
AcDbLine
 10
20.84628147245277
 20
-0.0789590151509503
 30
0.0
 11
20.84628147245276
 21
-0.83895901515095
 31
0.0
  0
LINE
  5
5C58
330
1F
100
AcDbEntity
  8
0
100
AcDbLine
 10
20.89628147245277
 20
-0.0289590151509502
 30
0.0
 11
21.65628147245277
 21
-0.0289590151509518
 31
0.0
  0
LINE
  5
5C5B
330
1F
100
AcDbEntity
  8
0
100
AcDbLine
 10
20.84628147245276
 20
-0.83895901515095
 30
0.0
 11
20.84628147245276
 21
-0.5889590151509503
 31
0.0
  0
LINE
  5
5C5C
330
1F
100
AcDbEntity
  8
0
100
AcDbLine
 10
20.84628147245276
 20
-0.5889590151509503
 30
0.0
 11
19.00628147245277
 21
-0.5889590151509504
 31
0.0
  0
LINE
  5
5C5D
330
1F
100
AcDbEntity
  8
0
100
AcDbLine
 10
20.84628147245277
 20
-0.0789590151509503
 30
0.0
 11
20.84628147245277
 21
-0.3289590151509503
 31
0.0
  0
LINE
  5
5C5E
330
1F
100
AcDbEntity
  8
0
100
AcDbLine
 10
20.84628147245277
 20
-0.3289590151509503
 30
0.0
 11
19.00628147245277
 21
-0.3289590151509505
 31
0.0
  0
LINE
  5
5C5F
330
1F
100
AcDbEntity
  8
0
100
AcDbLine
 10
20.82628147245277
 20
-0.0089590151509502
 30
0.0
 11
20.82628147245277
 21
0.0010409848490498
 31
0.0
  0
LINE
  5
5C60
330
1F
100
AcDbEntity
  8
0
100
AcDbLine
 10
20.82628147245277
 20
0.0010409848490498
 30
0.0
 11
21.72628147245276
 21
0.0010409848490498
 31
0.0
  0
LINE
  5
5C61
330
1F
100
AcDbEntity
  8
0
100
AcDbLine
 10
21.72628147245276
 20
0.0010409848490498
 30
0.0
 11
21.72628147245276
 21
-0.0089590151509504
 31
0.0
  0
LINE
  5
5C7B
330
1F
100
AcDbEntity
  8
0
100
AcDbLine
 10
20.82628147245277
 20
2.691040984849048
 30
0.0
 11
20.89628147245277
 21
2.691040984849048
 31
0.0
  0
LINE
  5
5C7C
330
1F
100
AcDbEntity
  8
0
100
AcDbLine
 10
20.89628147245277
 20
2.691040984849048
 30
0.0
 11
20.89628147245277
 21
2.621040984849044
 31
0.0
  0
LINE
  5
5C7D
330
1F
100
AcDbEntity
  8
0
100
AcDbLine
 10
20.89628147245277
 20
2.621040984849044
 30
0.0
 11
20.82628147245277
 21
2.621040984849044
 31
0.0
  0
LINE
  5
5C7E
330
1F
100
AcDbEntity
  8
0
100
AcDbLine
 10
20.82628147245277
 20
2.621040984849044
 30
0.0
 11
20.82628147245277
 21
2.691040984849048
 31
0.0
  0
LINE
  5
5C7F
330
1F
100
AcDbEntity
  8
0
100
AcDbLine
 10
20.92456574370023
 20
2.649325256096509
 30
0.0
 11
21.68456574370023
 21
1.889325256096508
 31
0.0
  0
LINE
  5
5C80
330
1F
100
AcDbEntity
  8
0
100
AcDbLine
 10
20.92456574370023
 20
2.649325256096509
 30
0.0
 11
20.89628147245277
 21
2.67760952734397
 31
0.0
  0
LINE
  5
5C81
330
1F
100
AcDbEntity
  8
0
100
AcDbLine
 10
20.82628147245277
 20
1.791040984849049
 30
0.0
 11
20.82628147245277
 21
1.861040984849049
 31
0.0
  0
LINE
  5
5C82
330
1F
100
AcDbEntity
  8
0
100
AcDbLine
 10
20.82628147245277
 20
1.861040984849049
 30
0.0
 11
20.89628147245277
 21
1.861040984849049
 31
0.0
  0
LINE
  5
5C83
330
1F
100
AcDbEntity
  8
0
100
AcDbLine
 10
20.89628147245277
 20
1.861040984849049
 30
0.0
 11
20.89628147245277
 21
1.791040984849049
 31
0.0
  0
LINE
  5
5C84
330
1F
100
AcDbEntity
  8
0
100
AcDbLine
 10
20.82628147245277
 20
1.791040984849049
 30
0.0
 11
20.89628147245277
 21
1.791040984849049
 31
0.0
  0
LINE
  5
5C85
330
1F
100
AcDbEntity
  8
0
100
AcDbLine
 10
20.89628147245277
 20
1.791040984849049
 30
0.0
 11
20.89628147245277
 21
1.811040984849049
 31
0.0
  0
LINE
  5
5C86
330
1F
100
AcDbEntity
  8
0
100
AcDbLine
 10
20.89628147245277
 20
1.811040984849049
 30
0.0
 11
21.65628147245277
 21
1.811040984849045
 31
0.0
  0
LINE
  5
5C87
330
1F
100
AcDbEntity
  8
0
100
AcDbLine
 10
20.82628147245277
 20
1.861040984849049
 30
0.0
 11
20.84628147245277
 21
1.861040984849049
 31
0.0
  0
LINE
  5
5C88
330
1F
100
AcDbEntity
  8
0
100
AcDbLine
 10
20.84628147245277
 20
1.861040984849049
 30
0.0
 11
20.84628147245277
 21
2.621040984849044
 31
0.0
  0
LINE
  5
5C9B
330
1F
100
AcDbEntity
  8
0
100
AcDbLine
 10
21.72628147245277
 20
1.791040984849049
 30
0.0
 11
21.72628147245277
 21
1.861040984849049
 31
0.0
  0
LINE
  5
5C9C
330
1F
100
AcDbEntity
  8
0
100
AcDbLine
 10
21.72628147245277
 20
1.861040984849049
 30
0.0
 11
21.65628147245277
 21
1.861040984849049
 31
0.0
  0
LINE
  5
5C9D
330
1F
100
AcDbEntity
  8
0
100
AcDbLine
 10
21.65628147245277
 20
1.861040984849049
 30
0.0
 11
21.65628147245277
 21
1.791040984849049
 31
0.0
  0
LINE
  5
5C9E
330
1F
100
AcDbEntity
  8
0
100
AcDbLine
 10
21.65628147245277
 20
1.791040984849049
 30
0.0
 11
21.72628147245277
 21
1.791040984849049
 31
0.0
  0
LINE
  5
5C9F
330
1F
100
AcDbEntity
  8
0
100
AcDbLine
 10
20.92456574370023
 20
2.649325256096509
 30
0.0
 11
21.68456574370023
 21
1.889325256096508
 31
0.0
  0
LINE
  5
5CA0
330
1F
100
AcDbEntity
  8
0
100
AcDbLine
 10
21.68456574370023
 20
1.889325256096508
 30
0.0
 11
21.71285001494769
 21
1.861040984849049
 31
0.0
  0
LINE
  5
5CA1
330
1F
100
AcDbEntity
  8
0
100
AcDbLine
 10
20.89628147245277
 20
1.811040984849049
 30
0.0
 11
21.65628147245277
 21
1.811040984849045
 31
0.0
  0
LINE
  5
5CC9
330
1F
100
AcDbEntity
  8
0
100
AcDbLine
 10
21.72628147245276
 20
1.861040984849049
 30
0.0
 11
21.72628147245276
 21
1.791040984849049
 31
0.0
  0
LINE
  5
5CCA
330
1F
100
AcDbEntity
  8
0
100
AcDbLine
 10
21.72628147245276
 20
1.791040984849049
 30
0.0
 11
21.65628147245277
 21
1.791040984849049
 31
0.0
  0
LINE
  5
5CCB
330
1F
100
AcDbEntity
  8
0
100
AcDbLine
 10
21.65628147245277
 20
1.791040984849049
 30
0.0
 11
21.65628147245277
 21
1.861040984849049
 31
0.0
  0
LINE
  5
5CCC
330
1F
100
AcDbEntity
  8
0
100
AcDbLine
 10
21.65628147245277
 20
1.861040984849049
 30
0.0
 11
21.72628147245276
 21
1.861040984849049
 31
0.0
  0
LINE
  5
5CCD
330
1F
100
AcDbEntity
  8
0
100
AcDbLine
 10
20.82628147245277
 20
0.9610409848490499
 30
0.0
 11
20.89628147245277
 21
0.9610409848490499
 31
0.0
  0
LINE
  5
5CCE
330
1F
100
AcDbEntity
  8
0
100
AcDbLine
 10
20.89628147245277
 20
0.9610409848490499
 30
0.0
 11
20.89628147245277
 21
1.031040984849048
 31
0.0
  0
LINE
  5
5CCF
330
1F
100
AcDbEntity
  8
0
100
AcDbLine
 10
20.89628147245277
 20
1.031040984849048
 30
0.0
 11
20.82628147245277
 21
1.031040984849048
 31
0.0
  0
LINE
  5
5CD0
330
1F
100
AcDbEntity
  8
0
100
AcDbLine
 10
20.82628147245277
 20
1.031040984849048
 30
0.0
 11
20.82628147245277
 21
0.9610409848490499
 31
0.0
  0
LINE
  5
5CD1
330
1F
100
AcDbEntity
  8
0
100
AcDbLine
 10
20.82628147245277
 20
1.861040984849049
 30
0.0
 11
20.89628147245277
 21
1.861040984849049
 31
0.0
  0
LINE
  5
5CD2
330
1F
100
AcDbEntity
  8
0
100
AcDbLine
 10
20.89628147245277
 20
1.861040984849049
 30
0.0
 11
20.89628147245277
 21
1.79104098484905
 31
0.0
  0
LINE
  5
5CD3
330
1F
100
AcDbEntity
  8
0
100
AcDbLine
 10
20.89628147245277
 20
1.79104098484905
 30
0.0
 11
20.82628147245277
 21
1.79104098484905
 31
0.0
  0
LINE
  5
5CD4
330
1F
100
AcDbEntity
  8
0
100
AcDbLine
 10
20.82628147245277
 20
1.861040984849049
 30
0.0
 11
20.82628147245277
 21
1.79104098484905
 31
0.0
  0
LINE
  5
5CD5
330
1F
100
AcDbEntity
  8
0
100
AcDbLine
 10
20.82628147245277
 20
1.79104098484905
 30
0.0
 11
20.84628147245277
 21
1.79104098484905
 31
0.0
  0
LINE
  5
5CD6
330
1F
100
AcDbEntity
  8
0
100
AcDbLine
 10
20.84628147245277
 20
1.79104098484905
 30
0.0
 11
20.84628147245276
 21
1.031040984849048
 31
0.0
  0
LINE
  5
5CD8
330
1F
100
AcDbEntity
  8
0
100
AcDbLine
 10
20.82628147245277
 20
0.9610409848490499
 30
0.0
 11
20.82628147245277
 21
1.031040984849048
 31
0.0
  0
LINE
  5
5CD9
330
1F
100
AcDbEntity
  8
0
100
AcDbLine
 10
20.82628147245277
 20
1.031040984849048
 30
0.0
 11
20.89628147245277
 21
1.031040984849048
 31
0.0
  0
LINE
  5
5CDA
330
1F
100
AcDbEntity
  8
0
100
AcDbLine
 10
20.89628147245277
 20
1.031040984849048
 30
0.0
 11
20.89628147245277
 21
0.9610409848490499
 31
0.0
  0
LINE
  5
5CDB
330
1F
100
AcDbEntity
  8
0
100
AcDbLine
 10
20.89628147245277
 20
0.9610409848490499
 30
0.0
 11
20.82628147245277
 21
0.9610409848490499
 31
0.0
  0
LINE
  5
5CDC
330
1F
100
AcDbEntity
  8
0
100
AcDbLine
 10
21.65628147245277
 20
1.861040984849049
 30
0.0
 11
21.65628147245277
 21
1.791040984849049
 31
0.0
  0
LINE
  5
5CDD
330
1F
100
AcDbEntity
  8
0
100
AcDbLine
 10
21.65628147245277
 20
1.791040984849049
 30
0.0
 11
21.72628147245276
 21
1.791040984849049
 31
0.0
  0
LINE
  5
5CDE
330
1F
100
AcDbEntity
  8
0
100
AcDbLine
 10
21.72628147245276
 20
1.791040984849049
 30
0.0
 11
21.72628147245276
 21
1.861040984849049
 31
0.0
  0
LINE
  5
5CDF
330
1F
100
AcDbEntity
  8
0
100
AcDbLine
 10
21.72628147245276
 20
0.9610409848490498
 30
0.0
 11
21.65628147245277
 21
0.9610409848490498
 31
0.0
  0
LINE
  5
5CE0
330
1F
100
AcDbEntity
  8
0
100
AcDbLine
 10
21.65628147245277
 20
0.9610409848490498
 30
0.0
 11
21.65628147245277
 21
1.031040984849048
 31
0.0
  0
LINE
  5
5CE1
330
1F
100
AcDbEntity
  8
0
100
AcDbLine
 10
21.65628147245277
 20
1.031040984849048
 30
0.0
 11
21.72628147245276
 21
1.031040984849048
 31
0.0
  0
LINE
  5
5CE2
330
1F
100
AcDbEntity
  8
0
100
AcDbLine
 10
21.72628147245276
 20
0.9610409848490498
 30
0.0
 11
21.72628147245276
 21
1.031040984849048
 31
0.0
  0
LINE
  5
5CE3
330
1F
100
AcDbEntity
  8
0
100
AcDbLine
 10
21.70628147245277
 20
1.031040984849048
 30
0.0
 11
21.70628147245277
 21
1.791040984849049
 31
0.0
  0
LINE
  5
5CE4
330
1F
100
AcDbEntity
  8
0
100
AcDbLine
 10
21.65628147245277
 20
0.9810409848490495
 30
0.0
 11
20.89628147245277
 21
0.9810409848490511
 31
0.0
  0
LINE
  5
5CE5
330
1F
100
AcDbEntity
  8
0
100
AcDbLine
 10
21.70628147245277
 20
1.031040984849048
 30
0.0
 11
21.70628147245277
 21
1.281040984849047
 31
0.0
  0
LINE
  5
5CE6
330
1F
100
AcDbEntity
  8
0
100
AcDbLine
 10
21.72628147245276
 20
0.9510409848490496
 30
0.0
 11
20.82628147245277
 21
0.9510409848490496
 31
0.0
  0
LINE
  5
5CE7
330
1F
100
AcDbEntity
  8
0
100
AcDbLine
 10
20.82628147245277
 20
0.9510409848490496
 30
0.0
 11
20.82628147245277
 21
0.9610409848490499
 31
0.0
  0
LINE
  5
5CE8
330
1F
100
AcDbEntity
  8
0
100
AcDbLine
 10
21.72628147245276
 20
0.9510409848490496
 30
0.0
 11
21.72628147245276
 21
0.9610409848490498
 31
0.0
  0
LINE
  5
5CE9
330
1F
100
AcDbEntity
  8
0
100
AcDbLine
 10
21.72628147245276
 20
0.0010409848490498
 30
0.0
 11
21.27628147245276
 21
0.0010409848490498
 31
0.0
  0
LINE
  5
5CEB
330
1F
100
AcDbEntity
  8
0
100
AcDbLine
 10
21.27628147245279
 20
0.9510409848490496
 30
0.0
 11
20.97628147245279
 21
0.9510409848490496
 31
0.0
  0
LINE
  5
5CEC
330
1F
100
AcDbEntity
  8
0
100
AcDbLine
 10
20.97628147245279
 20
0.9510409848490496
 30
0.0
 11
20.97628147245278
 21
0.0010409848490498
 31
0.0
  0
LINE
  5
5CED
330
1F
100
AcDbEntity
  8
0
100
AcDbLine
 10
20.97628147245278
 20
0.0010409848490498
 30
0.0
 11
21.57628147245278
 21
0.0010409848490498
 31
0.0
  0
LINE
  5
5CEE
330
1F
100
AcDbEntity
  8
0
100
AcDbLine
 10
21.57628147245278
 20
0.0010409848490498
 30
0.0
 11
21.57628147245279
 21
0.9510409848490496
 31
0.0
  0
LINE
  5
5CF4
330
1F
100
AcDbEntity
  8
0
100
AcDbLine
 10
19.27628147245277
 20
2.291040984849048
 30
0.0
 11
19.27628147245277
 21
2.341040984849048
 31
0.0
  0
LINE
  5
5CF9
330
1F
100
AcDbEntity
  8
0
100
AcDbLine
 10
20.57628147245277
 20
2.391040984849048
 30
0.0
 11
20.57628147245277
 21
2.391040984849048
 31
0.0
  0
LINE
  5
5CFD
330
1F
100
AcDbEntity
  8
0
100
AcDbLine
 10
20.52628147245277
 20
2.391040984849048
 30
0.0
 11
20.21350960477968
 21
2.391040984849048
 31
0.0
  0
LINE
  5
5CFE
330
1F
100
AcDbEntity
  8
0
100
AcDbLine
 10
19.32628147245277
 20
2.391040984849048
 30
0.0
 11
19.63905334012586
 21
2.391040984849048
 31
0.0
  0
ARC
  5
5CFF
330
1F
100
AcDbEntity
  8
0
100
AcDbCircle
 10
19.92628147245277
 20
2.99104098484906
 30
0.0
 40
0.6500000000000111
100
AcDbArc
 50
250.2500772043571
 51
289.7499227956426
  0
ARC
  5
5D00
330
1F
100
AcDbEntity
  8
0
100
AcDbCircle
 10
19.63905334012586
 20
2.191040984849049
 30
0.0
 40
0.2
100
AcDbArc
 50
70.25007720435765
 51
90.0
  0
ARC
  5
5D01
330
1F
100
AcDbEntity
  8
0
100
AcDbCircle
 10
20.21350960477968
 20
2.191040984849049
 30
0.0
 40
0.2
100
AcDbArc
 50
90.0
 51
109.7499227956433
  0
LINE
  5
5D03
330
1F
100
AcDbEntity
  8
0
100
AcDbLine
 10
20.57628147245277
 20
2.291040984849048
 30
0.0
 11
20.57628147245277
 21
2.341040984849048
 31
0.0
  0
ARC
  5
5D04
330
1F
100
AcDbEntity
  8
0
100
AcDbCircle
 10
19.32628147245277
 20
2.341040984849048
 30
0.0
 40
0.05
100
AcDbArc
 50
90.0
 51
180.0
  0
ARC
  5
5D05
330
1F
100
AcDbEntity
  8
0
100
AcDbCircle
 10
20.52628147245277
 20
2.341040984849048
 30
0.0
 40
0.05
100
AcDbArc
 50
0.0
 51
90.0
  0
LINE
  5
5D12
330
1F
100
AcDbEntity
  8
0
100
AcDbLine
 10
19.27628147245277
 20
2.191040984849049
 30
0.0
 11
19.27628147245277
 21
2.14104098484905
 31
0.0
  0
ARC
  5
5D13
330
1F
100
AcDbEntity
  8
0
100
AcDbCircle
 10
19.32628147245277
 20
2.14104098484905
 30
0.0
 40
0.05
100
AcDbArc
 50
180.0
 51
270.0
  0
LINE
  5
5D14
330
1F
100
AcDbEntity
  8
0
100
AcDbLine
 10
20.57628147245277
 20
2.091040984849048
 30
0.0
 11
20.57628147245277
 21
2.091040984849048
 31
0.0
  0
LINE
  5
5D15
330
1F
100
AcDbEntity
  8
0
100
AcDbLine
 10
20.52628147245277
 20
2.091040984849048
 30
0.0
 11
20.21350960477968
 21
2.091040984849048
 31
0.0
  0
LINE
  5
5D16
330
1F
100
AcDbEntity
  8
0
100
AcDbLine
 10
19.32628147245277
 20
2.091040984849048
 30
0.0
 11
19.63905334012586
 21
2.091040984849048
 31
0.0
  0
ARC
  5
5D17
330
1F
100
AcDbEntity
  8
0
100
AcDbCircle
 10
19.92628147245277
 20
1.491040984849035
 30
0.0
 40
0.6500000000000111
100
AcDbArc
 50
70.25007720435741
 51
109.7499227956429
  0
ARC
  5
5D18
330
1F
100
AcDbEntity
  8
0
100
AcDbCircle
 10
20.21350960477968
 20
2.291040984849048
 30
0.0
 40
0.2
100
AcDbArc
 50
250.2500772043567
 51
270.0
  0
ARC
  5
5D19
330
1F
100
AcDbEntity
  8
0
100
AcDbCircle
 10
19.63905334012586
 20
2.291040984849048
 30
0.0
 40
0.2
100
AcDbArc
 50
270.0
 51
289.7499227956424
  0
LINE
  5
5D1A
330
1F
100
AcDbEntity
  8
0
100
AcDbLine
 10
20.57628147245277
 20
2.191040984849049
 30
0.0
 11
20.57628147245277
 21
2.14104098484905
 31
0.0
  0
ARC
  5
5D1B
330
1F
100
AcDbEntity
  8
0
100
AcDbCircle
 10
20.52628147245277
 20
2.14104098484905
 30
0.0
 40
0.05
100
AcDbArc
 50
270.0
 51
0.0
  0
LINE
  5
5D1C
330
1F
100
AcDbEntity
  8
0
100
AcDbLine
 10
20.57628147245277
 20
2.291040984849048
 30
0.0
 11
20.57628147245277
 21
2.191040984849049
 31
0.0
  0
LINE
  5
5D1E
330
1F
100
AcDbEntity
  8
0
100
AcDbLine
 10
19.27628147245277
 20
2.191040984849049
 30
0.0
 11
19.27628147245277
 21
2.291040984849048
 31
0.0
  0
LINE
  5
5D32
330
1F
100
AcDbEntity
  8
0
100
AcDbLine
 10
24.42628147245276
 20
1.791040984849049
 30
0.0
 11
24.42628147245276
 21
1.861040984849049
 31
0.0
  0
LINE
  5
5D33
330
1F
100
AcDbEntity
  8
0
100
AcDbLine
 10
24.42628147245276
 20
1.861040984849049
 30
0.0
 11
24.35628147245277
 21
1.861040984849049
 31
0.0
  0
LINE
  5
5D34
330
1F
100
AcDbEntity
  8
0
100
AcDbLine
 10
24.35628147245277
 20
1.861040984849049
 30
0.0
 11
24.35628147245277
 21
1.791040984849049
 31
0.0
  0
LINE
  5
5D35
330
1F
100
AcDbEntity
  8
0
100
AcDbLine
 10
24.35628147245277
 20
1.791040984849049
 30
0.0
 11
24.42628147245276
 21
1.791040984849049
 31
0.0
  0
LINE
  5
5D36
330
1F
100
AcDbEntity
  8
0
100
AcDbLine
 10
23.52628147245277
 20
2.691040984849048
 30
0.0
 11
23.59628147245277
 21
2.691040984849048
 31
0.0
  0
LINE
  5
5D37
330
1F
100
AcDbEntity
  8
0
100
AcDbLine
 10
23.59628147245277
 20
2.691040984849048
 30
0.0
 11
23.59628147245277
 21
2.621040984849048
 31
0.0
  0
LINE
  5
5D38
330
1F
100
AcDbEntity
  8
0
100
AcDbLine
 10
23.59628147245277
 20
2.621040984849048
 30
0.0
 11
23.52628147245277
 21
2.621040984849048
 31
0.0
  0
LINE
  5
5D39
330
1F
100
AcDbEntity
  8
0
100
AcDbLine
 10
23.52628147245277
 20
2.621040984849048
 30
0.0
 11
23.52628147245277
 21
2.691040984849048
 31
0.0
  0
LINE
  5
5D3A
330
1F
100
AcDbEntity
  8
0
100
AcDbLine
 10
24.38456574370023
 20
1.889325256096508
 30
0.0
 11
23.62456574370023
 21
2.649325256096509
 31
0.0
  0
LINE
  5
5D3B
330
1F
100
AcDbEntity
  8
0
100
AcDbLine
 10
23.62456574370023
 20
2.649325256096509
 30
0.0
 11
23.59628147245277
 21
2.67760952734397
 31
0.0
  0
LINE
  5
5D3C
330
1F
100
AcDbEntity
  8
0
100
AcDbLine
 10
24.38456574370023
 20
1.889325256096508
 30
0.0
 11
24.41285001494769
 21
1.861040984849049
 31
0.0
  0
LINE
  5
5D3D
330
1F
100
AcDbEntity
  8
0
100
AcDbLine
 10
23.52628147245277
 20
1.791040984849049
 30
0.0
 11
23.59628147245277
 21
1.791040984849049
 31
0.0
  0
LINE
  5
5D3E
330
1F
100
AcDbEntity
  8
0
100
AcDbLine
 10
23.59628147245277
 20
1.791040984849049
 30
0.0
 11
23.59628147245277
 21
1.861040984849049
 31
0.0
  0
LINE
  5
5D3F
330
1F
100
AcDbEntity
  8
0
100
AcDbLine
 10
23.59628147245277
 20
1.861040984849049
 30
0.0
 11
23.52628147245277
 21
1.861040984849049
 31
0.0
  0
LINE
  5
5D40
330
1F
100
AcDbEntity
  8
0
100
AcDbLine
 10
23.52628147245277
 20
1.791040984849049
 30
0.0
 11
23.52628147245277
 21
1.861040984849049
 31
0.0
  0
LINE
  5
5D41
330
1F
100
AcDbEntity
  8
0
100
AcDbLine
 10
23.52628147245277
 20
1.861040984849049
 30
0.0
 11
23.54628147245277
 21
1.861040984849049
 31
0.0
  0
LINE
  5
5D42
330
1F
100
AcDbEntity
  8
0
100
AcDbLine
 10
23.54628147245277
 20
1.861040984849049
 30
0.0
 11
23.54628147245276
 21
2.621040984849048
 31
0.0
  0
LINE
  5
5D43
330
1F
100
AcDbEntity
  8
0
100
AcDbLine
 10
23.59628147245277
 20
1.791040984849049
 30
0.0
 11
23.59628147245277
 21
1.811040984849049
 31
0.0
  0
LINE
  5
5D44
330
1F
100
AcDbEntity
  8
0
100
AcDbLine
 10
23.59628147245277
 20
1.811040984849049
 30
0.0
 11
24.35628147245277
 21
1.81104098484905
 31
0.0
  0
LINE
  5
5D45
330
1F
100
AcDbEntity
  8
0
100
AcDbLine
 10
24.42628147245276
 20
-0.0089590151509504
 30
0.0
 11
24.42628147245276
 21
-0.0789590151509505
 31
0.0
  0
LINE
  5
5D46
330
1F
100
AcDbEntity
  8
0
100
AcDbLine
 10
24.42628147245276
 20
-0.0789590151509505
 30
0.0
 11
24.35628147245277
 21
-0.0789590151509505
 31
0.0
  0
LINE
  5
5D47
330
1F
100
AcDbEntity
  8
0
100
AcDbLine
 10
24.35628147245277
 20
-0.0789590151509505
 30
0.0
 11
24.35628147245277
 21
-0.0089590151509504
 31
0.0
  0
LINE
  5
5D48
330
1F
100
AcDbEntity
  8
0
100
AcDbLine
 10
24.35628147245277
 20
-0.0089590151509504
 30
0.0
 11
24.42628147245276
 21
-0.0089590151509504
 31
0.0
  0
LINE
  5
5D49
330
1F
100
AcDbEntity
  8
0
100
AcDbLine
 10
23.52628147245277
 20
-0.9089590151509503
 30
0.0
 11
23.59628147245277
 21
-0.9089590151509503
 31
0.0
  0
LINE
  5
5D4A
330
1F
100
AcDbEntity
  8
0
100
AcDbLine
 10
23.59628147245277
 20
-0.9089590151509503
 30
0.0
 11
23.59628147245277
 21
-0.8389590151509505
 31
0.0
  0
LINE
  5
5D4B
330
1F
100
AcDbEntity
  8
0
100
AcDbLine
 10
23.59628147245277
 20
-0.8389590151509505
 30
0.0
 11
23.52628147245277
 21
-0.8389590151509505
 31
0.0
  0
LINE
  5
5D4C
330
1F
100
AcDbEntity
  8
0
100
AcDbLine
 10
23.52628147245277
 20
-0.8389590151509505
 30
0.0
 11
23.52628147245277
 21
-0.9089590151509503
 31
0.0
  0
LINE
  5
5D4D
330
1F
100
AcDbEntity
  8
0
100
AcDbLine
 10
24.38456574370023
 20
-0.1072432863984118
 30
0.0
 11
23.62456574370023
 21
-0.8672432863984111
 31
0.0
  0
LINE
  5
5D4E
330
1F
100
AcDbEntity
  8
0
100
AcDbLine
 10
23.62456574370023
 20
-0.8672432863984111
 30
0.0
 11
23.59628147245277
 21
-0.8955275576458722
 31
0.0
  0
LINE
  5
5D4F
330
1F
100
AcDbEntity
  8
0
100
AcDbLine
 10
24.38456574370023
 20
-0.1072432863984118
 30
0.0
 11
24.41285001494769
 21
-0.0789590151509505
 31
0.0
  0
LINE
  5
5D50
330
1F
100
AcDbEntity
  8
0
100
AcDbLine
 10
23.52628147245277
 20
-0.0089590151509504
 30
0.0
 11
23.59628147245277
 21
-0.0089590151509504
 31
0.0
  0
LINE
  5
5D51
330
1F
100
AcDbEntity
  8
0
100
AcDbLine
 10
23.59628147245277
 20
-0.0089590151509504
 30
0.0
 11
23.59628147245277
 21
-0.0789590151509505
 31
0.0
  0
LINE
  5
5D52
330
1F
100
AcDbEntity
  8
0
100
AcDbLine
 10
23.59628147245277
 20
-0.0789590151509505
 30
0.0
 11
23.52628147245277
 21
-0.0789590151509505
 31
0.0
  0
LINE
  5
5D53
330
1F
100
AcDbEntity
  8
0
100
AcDbLine
 10
23.52628147245277
 20
-0.0089590151509504
 30
0.0
 11
23.52628147245277
 21
-0.0789590151509505
 31
0.0
  0
LINE
  5
5D54
330
1F
100
AcDbEntity
  8
0
100
AcDbLine
 10
23.52628147245277
 20
-0.0789590151509505
 30
0.0
 11
23.54628147245277
 21
-0.0789590151509505
 31
0.0
  0
LINE
  5
5D55
330
1F
100
AcDbEntity
  8
0
100
AcDbLine
 10
23.54628147245277
 20
-0.0789590151509505
 30
0.0
 11
23.54628147245276
 21
-0.8389590151509505
 31
0.0
  0
LINE
  5
5D56
330
1F
100
AcDbEntity
  8
0
100
AcDbLine
 10
23.59628147245277
 20
-0.0089590151509504
 30
0.0
 11
23.59628147245277
 21
-0.0289590151509505
 31
0.0
  0
LINE
  5
5D57
330
1F
100
AcDbEntity
  8
0
100
AcDbLine
 10
23.59628147245277
 20
-0.0289590151509505
 30
0.0
 11
24.35628147245277
 21
-0.028959015150952
 31
0.0
  0
LINE
  5
5D58
330
1F
100
AcDbEntity
  8
0
100
AcDbLine
 10
23.54467390197564
 20
1.791040984849049
 30
0.0
 11
23.54467390197564
 21
-0.0089590151509504
 31
0.0
  0
LINE
  5
5D59
330
1F
100
AcDbEntity
  8
0
100
AcDbLine
 10
23.57706151236028
 20
1.791040986930198
 30
0.0
 11
23.57706151236028
 21
-0.0089590130697998
 31
0.0
  0
LINE
  5
5D5A
330
1F
100
AcDbEntity
  8
0
100
AcDbLine
 10
24.37431590949849
 20
1.791040986930198
 30
0.0
 11
24.37431590949849
 21
-0.0089590130697998
 31
0.0
  0
LINE
  5
5D5B
330
1F
100
AcDbEntity
  8
0
100
AcDbLine
 10
24.40670351988313
 20
1.791040989011349
 30
0.0
 11
24.40670351988313
 21
-0.0089590109886493
 31
0.0
  0
LINE
  5
5D61
330
1F
100
AcDbEntity
  8
0
100
AcDbLine
 10
23.57706151236028
 20
1.791040984849049
 30
0.0
 11
23.57706151236028
 21
1.491040984849049
 31
0.0
  0
LINE
  5
5D64
330
1F
100
AcDbEntity
  8
0
100
AcDbLine
 10
23.57706151236028
 20
1.491040984849049
 30
0.0
 11
23.57706151236028
 21
1.191040984849049
 31
0.0
  0
LINE
  5
5D67
330
1F
100
AcDbEntity
  8
0
100
AcDbLine
 10
23.57706151236028
 20
1.191040984849049
 30
0.0
 11
23.57706151236028
 21
0.8910409848490495
 31
0.0
  0
LINE
  5
5D6E
330
1F
100
AcDbEntity
  8
0
100
AcDbLine
 10
23.54628147245276
 20
-0.0789590151509525
 30
0.0
 11
23.54628147245276
 21
-0.8389590151509505
 31
0.0
  0
LINE
  5
5D80
330
1F
100
AcDbEntity
  8
0
100
AcDbLine
 10
23.22628147457922
 20
-0.6109896200063007
 30
0.0
 11
23.22628147457922
 21
-0.3117696599138074
 31
0.0
  0
LINE
  5
5D81
330
1F
100
AcDbEntity
  8
0
100
AcDbLine
 10
22.92628147457922
 20
-0.6109896200063007
 30
0.0
 11
22.92628147457922
 21
-0.3117696599138074
 31
0.0
  0
LINE
  5
5D82
330
1F
100
AcDbEntity
  8
0
100
AcDbLine
 10
22.62628147457922
 20
-0.6109896200063007
 30
0.0
 11
22.62628147457922
 21
-0.3117696599138074
 31
0.0
  0
LINE
  5
5D83
330
1F
100
AcDbEntity
  8
0
100
AcDbLine
 10
22.32628147457922
 20
-0.6109896200063007
 30
0.0
 11
22.32628147457922
 21
-0.3117696599138074
 31
0.0
  0
LINE
  5
5D84
330
1F
100
AcDbEntity
  8
0
100
AcDbLine
 10
22.02628147457922
 20
-0.6109896200063007
 30
0.0
 11
22.02628147457922
 21
-0.3117696599138074
 31
0.0
  0
LINE
  5
5D85
330
1F
100
AcDbEntity
  8
0
100
AcDbLine
 10
21.70628147245277
 20
-0.6109896200063007
 30
0.0
 11
23.54628147245276
 21
-0.6109896200063009
 31
0.0
  0
LINE
  5
5D86
330
1F
100
AcDbEntity
  8
0
100
AcDbLine
 10
21.70628147245277
 20
-0.3117696599138073
 30
0.0
 11
23.54628147245276
 21
-0.3117696599138076
 31
0.0
  0
LINE
  5
5DA7
330
1F
100
AcDbEntity
  8
0
100
AcDbLine
 10
22.02628147457922
 20
-0.6109896200063007
 30
0.0
 11
22.04628147457922
 21
-0.6109896200063007
 31
0.0
  0
LINE
  5
5DA9
330
1F
100
AcDbEntity
  8
0
100
AcDbLine
 10
23.24628149285358
 20
-0.6109896236044237
 30
0.0
 11
23.24628149285358
 21
-0.3117696635119303
 31
0.0
  0
LINE
  5
5DAA
330
1F
100
AcDbEntity
  8
0
100
AcDbLine
 10
22.94628149285359
 20
-0.6109896236044237
 30
0.0
 11
22.94628149285359
 21
-0.3117696635119303
 31
0.0
  0
LINE
  5
5DAB
330
1F
100
AcDbEntity
  8
0
100
AcDbLine
 10
22.64628149285359
 20
-0.6109896236044237
 30
0.0
 11
22.64628149285359
 21
-0.3117696635119303
 31
0.0
  0
LINE
  5
5DAC
330
1F
100
AcDbEntity
  8
0
100
AcDbLine
 10
22.34628149285359
 20
-0.6109896236044237
 30
0.0
 11
22.34628149285359
 21
-0.3117696635119303
 31
0.0
  0
LINE
  5
5DAD
330
1F
100
AcDbEntity
  8
0
100
AcDbLine
 10
22.04628149285358
 20
-0.6109896236044237
 30
0.0
 11
22.04628149285358
 21
-0.3117696635119303
 31
0.0
  0
LINE
  5
5DB5
330
1F
100
AcDbEntity
  8
0
100
AcDbLine
 10
22.32628149285359
 20
-0.6109896236044237
 30
0.0
 11
22.34628149285359
 21
-0.6109896236044237
 31
0.0
  0
LINE
  5
5DBD
330
1F
100
AcDbEntity
  8
0
100
AcDbLine
 10
22.62628149285359
 20
-0.6109896236044237
 30
0.0
 11
22.64628149285359
 21
-0.6109896236044237
 31
0.0
  0
LINE
  5
5DC5
330
1F
100
AcDbEntity
  8
0
100
AcDbLine
 10
22.92628149285359
 20
-0.6109896236044237
 30
0.0
 11
22.94628149285359
 21
-0.6109896236044237
 31
0.0
  0
LINE
  5
5DCD
330
1F
100
AcDbEntity
  8
0
100
AcDbLine
 10
23.22628149285359
 20
-0.6109896236044237
 30
0.0
 11
23.24628149285358
 21
-0.6109896236044237
 31
0.0
  0
LINE
  5
5DE7
330
1F
100
AcDbEntity
  8
0
100
AcDbLine
 10
24.37431590949849
 20
-0.0089590130697998
 30
0.0
 11
24.37431590949849
 21
1.791040986930198
 31
0.0
  0
LINE
  5
5DE8
330
1F
100
AcDbEntity
  8
0
100
AcDbLine
 10
24.40670351988313
 20
-0.0089590151509511
 30
0.0
 11
24.40670351988313
 21
1.791040984849049
 31
0.0
  0
LINE
  5
5DE9
330
1F
100
AcDbEntity
  8
0
100
AcDbLine
 10
24.37431590949849
 20
0.2910409890113521
 30
0.0
 11
24.07628147245277
 21
0.2910409890113521
 31
0.0
  0
LINE
  5
5DEA
330
1F
100
AcDbEntity
  8
0
100
AcDbLine
 10
23.87628147245277
 20
0.2910409890113521
 30
0.0
 11
23.57706151236028
 21
0.2910409890113521
 31
0.0
  0
LINE
  5
5DEB
330
1F
100
AcDbEntity
  8
0
100
AcDbLine
 10
24.37431590949849
 20
0.5910409890113493
 30
0.0
 11
24.07628147245277
 21
0.5910409890113493
 31
0.0
  0
LINE
  5
5DEC
330
1F
100
AcDbEntity
  8
0
100
AcDbLine
 10
23.87628147245277
 20
0.5910409890113493
 30
0.0
 11
23.57706151236028
 21
0.5910409890113493
 31
0.0
  0
LINE
  5
5DED
330
1F
100
AcDbEntity
  8
0
100
AcDbLine
 10
24.37431590949849
 20
0.8910409890113497
 30
0.0
 11
24.07628147245277
 21
0.8910409890113497
 31
0.0
  0
LINE
  5
5DEE
330
1F
100
AcDbEntity
  8
0
100
AcDbLine
 10
23.87628147245277
 20
0.8910409890113497
 30
0.0
 11
23.57706151236028
 21
0.8910409890113497
 31
0.0
  0
LINE
  5
5DEF
330
1F
100
AcDbEntity
  8
0
100
AcDbLine
 10
24.37431590949849
 20
1.19104098901135
 30
0.0
 11
24.07628147245277
 21
1.19104098901135
 31
0.0
  0
LINE
  5
5DF0
330
1F
100
AcDbEntity
  8
0
100
AcDbLine
 10
23.87628147245277
 20
1.19104098901135
 30
0.0
 11
23.57706151236028
 21
1.19104098901135
 31
0.0
  0
LINE
  5
5DF1
330
1F
100
AcDbEntity
  8
0
100
AcDbLine
 10
24.37431590949849
 20
1.49104098901135
 30
0.0
 11
24.07628147245277
 21
1.49104098901135
 31
0.0
  0
LINE
  5
5DF2
330
1F
100
AcDbEntity
  8
0
100
AcDbLine
 10
23.87628147245277
 20
1.49104098901135
 30
0.0
 11
23.57706151236028
 21
1.49104098901135
 31
0.0
  0
LINE
  5
5DF3
330
1F
100
AcDbEntity
  8
0
100
AcDbLine
 10
24.07628147144678
 20
0.2910409868848931
 30
0.0
 11
23.77706151135427
 21
0.2910409868848931
 31
0.0
  0
LINE
  5
5DF4
330
1F
100
AcDbEntity
  8
0
100
AcDbLine
 10
24.07628147144678
 20
0.5910409868848903
 30
0.0
 11
23.77706151135427
 21
0.5910409868848903
 31
0.0
  0
LINE
  5
5DF5
330
1F
100
AcDbEntity
  8
0
100
AcDbLine
 10
24.07628147144678
 20
0.8910409868848907
 30
0.0
 11
23.77706151135427
 21
0.8910409868848907
 31
0.0
  0
LINE
  5
5DF6
330
1F
100
AcDbEntity
  8
0
100
AcDbLine
 10
24.07628147144678
 20
1.191040986884889
 30
0.0
 11
23.77706151135427
 21
1.191040986884889
 31
0.0
  0
LINE
  5
5DF7
330
1F
100
AcDbEntity
  8
0
100
AcDbLine
 10
24.07628147144678
 20
1.491040986884889
 30
0.0
 11
23.77706151135427
 21
1.491040986884889
 31
0.0
  0
LINE
  5
5DFA
330
1F
100
AcDbEntity
  8
0
100
AcDbLine
 10
24.35628147245277
 20
-0.028959015150952
 30
0.0
 11
23.97628147245276
 21
-0.028959015150952
 31
0.0
  0
LINE
  5
5DFD
330
1F
100
AcDbEntity
  8
0
100
AcDbLine
 10
23.97628147245276
 20
1.81104098484905
 30
0.0
 11
23.97628147245276
 21
-0.0289590151509512
 31
0.0
  0
LINE
  5
5DFE
330
1F
100
AcDbEntity
  8
0
100
AcDbLine
 10
23.97628147245276
 20
-0.0289590151509512
 30
0.0
 11
23.69628147245276
 21
-0.0289590151509512
 31
0.0
  0
LINE
  5
5E01
330
1F
100
AcDbEntity
  8
0
100
AcDbLine
 10
23.69628147245276
 20
1.811040984849049
 30
0.0
 11
23.69628147245276
 21
-0.0289590151509512
 31
0.0
  0
LINE
  5
5E02
330
1F
100
AcDbEntity
  8
0
100
AcDbLine
 10
23.69628147245276
 20
-0.0289590151509512
 30
0.0
 11
23.97628147245276
 21
-0.028959015150952
 31
0.0
  0
LINE
  5
5E03
330
1F
100
AcDbEntity
  8
0
100
AcDbLine
 10
23.97628147245276
 20
-0.028959015150952
 30
0.0
 11
24.25628147245277
 21
-0.028959015150952
 31
0.0
  0
LINE
  5
5E06
330
1F
100
AcDbEntity
  8
0
100
AcDbLine
 10
24.25628147245277
 20
1.781413214783633
 30
0.0
 11
24.25628147245277
 21
1.81104098484905
 31
0.0
  0
LINE
  5
5E07
330
1F
100
AcDbEntity
  8
0
100
AcDbLine
 10
24.25628147245277
 20
1.81104098484905
 30
0.0
 11
24.25628147245277
 21
-0.0289590151509518
 31
0.0
  0
CIRCLE
  5
5E0A
330
1F
100
AcDbEntity
  8
0
100
AcDbCircle
 10
22.51150566519886
 20
2.098924583639013
 30
0.0
 40
0.175
  0
CIRCLE
  5
5E16
330
1F
100
AcDbEntity
  8
0
100
AcDbCircle
 10
23.03917486479836
 20
2.370541153791708
 30
0.0
 40
0.175
  0
CIRCLE
  5
5E18
330
1F
100
AcDbEntity
  8
0
100
AcDbCircle
 10
21.98650566519886
 20
2.370541153791708
 30
0.0
 40
0.175
  0
LINE
  5
5E19
330
1F
100
AcDbEntity
  8
0
100
AcDbLine
 10
23.52628147245277
 20
-0.0089590151509504
 30
0.0
 11
23.52628147245277
 21
-0.0439590151509504
 31
0.0
  0
LINE
  5
5E1A
330
1F
100
AcDbEntity
  8
0
100
AcDbLine
 10
23.52628147245277
 20
-0.0439590151509504
 30
0.0
 11
21.72628147245276
 21
-0.0439590151509505
 31
0.0
  0
LINE
  5
5E1D
330
1F
100
AcDbEntity
  8
0
100
AcDbLine
 10
23.52628147245277
 20
-0.8739590151509501
 30
0.0
 11
21.72628147245276
 21
-0.8739590151509501
 31
0.0
  0
LINE
  5
5E60
330
1F
100
AcDbEntity
  8
STREFA BEZPIECZEŃSTWA
100
AcDbLine
 10
18.33496112889312
 20
-2.408959015150951
 30
0.0
 11
16.62628147245276
 21
-0.7002793587105881
 31
0.0
  0
LINE
  5
5E62
330
1F
100
AcDbEntity
  8
STREFA BEZPIECZEŃSTWA
100
AcDbLine
 10
18.33496112889312
 20
4.191040984434152
 30
0.0
 11
16.62628147245276
 21
2.482361327993789
 31
0.0
  0
LINE
  5
5E64
330
1F
100
AcDbEntity
  8
STREFA BEZPIECZEŃSTWA
100
AcDbLine
 10
24.21760181601241
 20
-2.408959015150951
 30
0.0
 11
25.92628147245277
 21
-0.7002793587105881
 31
0.0
  0
LINE
  5
5E66
102
{ACAD_REACTORS
330
5E81
102
}
330
1F
100
AcDbEntity
  8
STREFA BEZPIECZEŃSTWA
100
AcDbLine
 10
24.21760181601241
 20
4.191040984434152
 30
0.0
 11
25.92628147245277
 21
2.482361327993789
 31
0.0
  0
LINE
  5
5E68
102
{ACAD_REACTORS
330
5E95
102
}
330
1F
100
AcDbEntity
  8
STREFA BEZPIECZEŃSTWA
100
AcDbLine
 10
24.21760181601241
 20
4.191040984434152
 30
0.0
 11
18.33496112889312
 21
4.191040984434152
 31
0.0
  0
LINE
  5
5E6A
102
{ACAD_REACTORS
330
5E95
102
}
330
1F
100
AcDbEntity
  8
STREFA BEZPIECZEŃSTWA
100
AcDbLine
 10
18.33496112889312
 20
-2.408959015150951
 30
0.0
 11
24.21760181601241
 21
-2.408959015150951
 31
0.0
  0
LINE
  5
5E6B
102
{ACAD_REACTORS
330
5E81
102
}
330
1F
100
AcDbEntity
  8
STREFA BEZPIECZEŃSTWA
100
AcDbLine
 10
16.62628147245276
 20
2.482361327993789
 30
0.0
 11
16.62628147245276
 21
-0.7002793587105881
 31
0.0
  0
LINE
  5
5E6D
102
{ACAD_REACTORS
330
5E81
102
}
330
1F
100
AcDbEntity
  8
STREFA BEZPIECZEŃSTWA
100
AcDbLine
 10
25.92628147245277
 20
-0.7002793587105881
 30
0.0
 11
25.92628147245277
 21
2.482361327993789
 31
0.0
  0
DIMENSION
  5
5E6E
102
{ACAD_XDICTIONARY
360
5E79
102
}
102
{ACAD_REACTORS
330
5E81
102
}
330
1F
100
AcDbEntity
  8
0
100
AcDbDimension
  2
*D13
 10
25.92628147245277
 20
4.914246327661388
 30
0.0
 11
21.27628147245276
 21
5.126642431557492
 31
0.0
 70
    32
 71
     5
 42
9.300000000000011
  3
AR SKALA 1-50
100
AcDbAlignedDimension
 13
16.62628147245276
 23
2.482361327993789
 33
0.0
 14
25.92628147245277
 24
2.482361327993789
 34
0.0
100
AcDbRotatedDimension
  0
DIMENSION
  5
5E82
102
{ACAD_XDICTIONARY
360
5E8D
102
}
102
{ACAD_REACTORS
330
5E95
102
}
330
1F
100
AcDbEntity
  8
0
100
AcDbDimension
  2
*D14
 10
26.75591125756231
 20
-2.408959015150951
 30
0.0
 11
26.54351515366621
 21
0.8910409846416047
 31
0.0
 70
    32
 71
     5
 42
6.599999999585103
  3
AR SKALA 1-50
100
AcDbAlignedDimension
 13
24.21760181601241
 23
4.191040984434152
 33
0.0
 14
24.21760181601241
 24
-2.408959015150951
 34
0.0
 50
90.0
100
AcDbRotatedDimension
  0
VIEWPORT
  5
7CA
330
1B
100
AcDbEntity
 67
     1
  8
0
100
AcDbViewport
 10
171.4064620648302
 20
121.650074477934
 30
0.0
 40
531.1968975364418
 41
257.7929343882177
 68
     2
 69
     1
 12
171.4064620648302
 22
121.650074477934
 13
0.0
 23
0.0
 14
10.0
 24
10.0
 15
10.0
 25
10.0
 16
0.0
 26
0.0
 36
1.0
 17
0.0
 27
0.0
 37
0.0
 42
50.0
 43
0.0
 44
0.0
 45
257.7929343882177
 50
0.0
 51
0.0
 72
   100
 90
   819232
  1

281
     0
 71
     1
 74
     0
110
0.0
120
0.0
130
0.0
111
1.0
121
0.0
131
0.0
112
0.0
122
1.0
132
0.0
 79
     0
146
0.0
170
     0
  0
VIEWPORT
  5
99A
330
1B
100
AcDbEntity
 67
     1
  8
Defpoints
100
AcDbViewport
 10
151.5855934681565
 20
104.8621726199724
 30
0.0
 40
290.0480970456033
 41
203.1599664902751
 68
     1
 69
     2
 12
21.33257643261448
 22
1.504514588498143
 13
0.0
 23
0.0
 14
0.5
 24
0.5
 15
0.5
 25
0.5
 16
0.0
 26
0.0
 36
1.0
 17
0.0
 27
0.0
 37
-1000.0
 42
50.0
 43
4.148984367261673
 44
9.217858496371267
 45
9.061142805367856
 50
0.0
 51
0.0
 72
   100
 90
   819296
  1

281
     0
 71
     1
 74
     0
110
0.0
120
0.0
130
0.0
111
1.0
121
0.0
131
0.0
112
0.0
122
1.0
132
0.0
 79
     0
146
0.0
170
     0
  0
ENDSEC
  0
SECTION
  2
OBJECTS
  0
DICTIONARY
  5
C
330
0
100
AcDbDictionary
281
     1
  3
ACAD_COLOR
350
4B9
  3
ACAD_GROUP
350
D
  3
ACAD_LAYOUT
350
1A
  3
ACAD_MATERIAL
350
3B
  3
ACAD_MLEADERSTYLE
350
489
  3
ACAD_MLINESTYLE
350
17
  3
ACAD_PLOTSETTINGS
350
19
  3
ACAD_PLOTSTYLENAME
350
E
  3
ACAD_SCALELIST
350
3545
  3
ACAD_TABLESTYLE
350
4BA
  3
ACAD_VISUALSTYLE
350
2A
  3
ACDB_RECOMPOSE_DATA
350
3830
  3
AcDbVariableDictionary
350
487
  0
DICTIONARY
  5
84C
330
8
100
AcDbDictionary
280
     1
281
     1
  0
DICTIONARY
  5
7D1
330
2
100
AcDbDictionary
280
     1
281
     1
  3
ACAD_LAYERFILTERS
360
5B52
  3
ACAD_LAYERSTATES
360
7D2
  3
ACLYDICTIONARY
360
5B51
  0
DICTIONARY
  5
3598
330
10
100
AcDbDictionary
280
     1
281
     1
  3
ADSK_XREC_LAYER_RECONCILED
360
3599
  0
DICTIONARY
  5
359A
330
87B
100
AcDbDictionary
280
     1
281
     1
  3
ADSK_XREC_LAYER_RECONCILED
360
359B
  0
DICTIONARY
  5
359C
330
87D
100
AcDbDictionary
280
     1
281
     1
  3
ADSK_XREC_LAYER_RECONCILED
360
359D
  0
DICTIONARY
  5
5F8
330
1F
100
AcDbDictionary
280
     1
281
     1
  3
ACAD_SORTENTS
360
5F9
  0
DICTIONARY
  5
3622
330
361E
100
AcDbDictionary
280
     1
281
     1
  3
ACAD_SORTENTS
360
3623
  0
DICTIONARY
  5
5BBF
330
5BAA
100
AcDbDictionary
280
     1
281
     1
  3
ACAD_SORTENTS
360
5BC0
  0
DICTIONARY
  5
5DA3
330
5D9D
100
AcDbDictionary
280
     1
281
     1
  3
ACAD_SORTENTS
360
5DA4
  0
DICTIONARY
  5
5F2D
330
3D47
100
AcDbDictionary
280
     1
281
     1
  3
ACAD_MTEXT_2008_RT
360
5F2E
  0
DICTIONARY
  5
5F2F
330
3F0C
100
AcDbDictionary
280
     1
281
     1
  3
ACAD_MTEXT_2008_RT
360
5F30
  0
DICTIONARY
  5
5F31
330
3F23
100
AcDbDictionary
280
     1
281
     1
  3
ACAD_MTEXT_2008_RT
360
5F32
  0
DICTIONARY
  5
5F33
330
3F39
100
AcDbDictionary
280
     1
281
     1
  3
ACAD_MTEXT_2008_RT
360
5F34
  0
DICTIONARY
  5
5E79
330
5E6E
100
AcDbDictionary
280
     1
281
     1
  3
ACAD_DIMASSOC
360
5E81
  0
DICTIONARY
  5
5E8D
330
5E82
100
AcDbDictionary
280
     1
281
     1
  3
ACAD_DIMASSOC
360
5E95
  0
DICTIONARY
  5
4B9
102
{ACAD_REACTORS
330
C
102
}
330
C
100
AcDbDictionary
281
     1
  0
DICTIONARY
  5
D
102
{ACAD_REACTORS
330
C
102
}
330
C
100
AcDbDictionary
281
     1
  0
DICTIONARY
  5
1A
102
{ACAD_REACTORS
330
C
102
}
330
C
100
AcDbDictionary
281
     1
  3
Layout1
350
1E
  3
Model
350
22
  0
DICTIONARY
  5
3B
102
{ACAD_REACTORS
330
C
102
}
330
C
100
AcDbDictionary
281
     1
  3
ByBlock
350
3D
  3
ByLayer
350
3C
  3
Global
350
3E
  0
DICTIONARY
  5
489
102
{ACAD_REACTORS
330
C
102
}
330
C
100
AcDbDictionary
281
     1
  3
Standard
350
3567
  0
DICTIONARY
  5
17
102
{ACAD_REACTORS
330
C
102
}
330
C
100
AcDbDictionary
281
     1
  3
Standard
350
18
  0
DICTIONARY
  5
19
102
{ACAD_REACTORS
330
C
102
}
330
C
100
AcDbDictionary
281
     1
  0
ACDBDICTIONARYWDFLT
  5
E
102
{ACAD_REACTORS
330
C
102
}
330
C
100
AcDbDictionary
281
     1
  3
Normal
350
F
100
AcDbDictionaryWithDefault
340
F
  0
DICTIONARY
  5
3545
102
{ACAD_REACTORS
330
C
102
}
330
C
100
AcDbDictionary
281
     1
  3
*A1
350
3F84
  3
*A10
350
3FA2
  3
*A11
350
3FA3
  3
*A12
350
3F95
  3
*A13
350
3FA4
  3
*A14
350
3FA5
  3
*A15
350
3FA6
  3
*A16
350
3F8E
  3
*A17
350
3FA7
  3
*A18
350
3F87
  3
*A19
350
3F88
  3
*A2
350
3F9C
  3
*A20
350
3F89
  3
*A21
350
3F8A
  3
*A22
350
3F8B
  3
*A23
350
3F96
  3
*A24
350
3F8C
  3
*A25
350
3F8F
  3
*A26
350
3F90
  3
*A27
350
3F91
  3
*A28
350
3F92
  3
*A29
350
3F93
  3
*A3
350
3F9D
  3
*A30
350
3F94
  3
*A31
350
3F85
  3
*A32
350
3F97
  3
*A33
350
3F98
  3
*A34
350
3F99
  3
*A35
350
3F9A
  3
*A36
350
3F9B
  3
*A4
350
3F8D
  3
*A5
350
3F9E
  3
*A6
350
3F9F
  3
*A7
350
3FA0
  3
*A8
350
3F86
  3
*A9
350
3FA1
  3
A0
350
3546
  3
A1
350
3547
  3
A2
350
3548
  3
A3
350
3549
  3
A4
350
354A
  3
A5
350
354B
  3
A6
350
354C
  3
A7
350
354D
  3
A8
350
354E
  3
A9
350
354F
  3
B0
350
3550
  3
B1
350
3551
  3
B2
350
3552
  3
B3
350
3553
  3
B4
350
3554
  3
B5
350
3555
  3
B6
350
3556
  3
B7
350
3557
  3
B8
350
3558
  3
B9
350
3559
  3
C0
350
355A
  3
C1
350
355B
  3
C2
350
355C
  3
C3
350
355D
  3
C4
350
355E
  3
C5
350
355F
  3
C6
350
3560
  3
C7
350
3561
  3
C8
350
3562
  3
C9
350
3563
  3
D0
350
3564
  3
D1
350
3565
  3
D2
350
3566
  0
DICTIONARY
  5
4BA
102
{ACAD_REACTORS
330
C
102
}
330
C
100
AcDbDictionary
281
     1
  3
Standard
350
4BB
  0
DICTIONARY
  5
2A
102
{ACAD_REACTORS
330
C
102
}
330
C
100
AcDbDictionary
281
     1
  3
2dWireframe
350
2F
  3
3D Hidden
350
A48
  3
3dWireframe
350
A47
  3
Basic
350
32
  3
Brighten
350
36
  3
ColorChange
350
3A
  3
Conceptual
350
A49
  3
Dim
350
35
  3
Facepattern
350
39
  3
Flat
350
2B
  3
FlatWithEdges
350
2C
  3
Gouraud
350
2D
  3
GouraudWithEdges
350
2E
  3
Linepattern
350
38
  3
Realistic
350
A4A
  3
Thicken
350
37
  0
XRECORD
  5
3830
102
{ACAD_REACTORS
330
C
102
}
330
C
100
AcDbXrecord
280
     1
 90
        1
330
4BB
  0
DICTIONARY
  5
487
102
{ACAD_REACTORS
330
C
102
}
330
C
100
AcDbDictionary
281
     1
  3
CANNOSCALE
350
3833
  3
CMLEADERSTYLE
350
3831
  3
CTABLESTYLE
350
5FE
  3
DIMASSOC
350
48A
  3
HIDETEXT
350
48B
  3
INDEXCTL
350
86B
  3
LIGHTINGUNITS
350
3834
  3
MSLTSCALE
350
3832
  3
SORTENTS
350
86A
  0
DICTIONARY
  5
5B52
102
{ACAD_REACTORS
330
7D1
102
}
330
7D1
100
AcDbDictionary
281
     1
  0
DICTIONARY
  5
7D2
102
{ACAD_REACTORS
330
7D1
102
}
330
7D1
100
AcDbDictionary
281
     1
  0
DICTIONARY
  5
5B51
102
{ACAD_REACTORS
330
7D1
102
}
330
7D1
100
AcDbDictionary
281
     1
1001
ACAD
1000
<All
  0
XRECORD
  5
3599
102
{ACAD_REACTORS
330
3598
102
}
330
3598
100
AcDbXrecord
280
     1
290
     1
  0
XRECORD
  5
359B
102
{ACAD_REACTORS
330
359A
102
}
330
359A
100
AcDbXrecord
280
     1
290
     1
  0
XRECORD
  5
359D
102
{ACAD_REACTORS
330
359C
102
}
330
359C
100
AcDbXrecord
280
     1
290
     1
  0
SORTENTSTABLE
  5
5F9
102
{ACAD_REACTORS
330
5F8
102
}
330
5F8
100
AcDbSortentsTable
330
1F
331
5D00
  5
5D02
331
5B70
  5
5B70
331
5B31
  5
5B31
331
5C56
  5
5C56
331
5CCD
  5
5CCD
331
5C5E
  5
5C5E
331
5B49
  5
5B49
331
5B80
  5
5B80
331
5CD5
  5
5CD5
331
5CDD
  5
5CDD
331
5C1F
  5
5C1F
331
5B88
  5
5B88
331
5C7E
  5
5C7E
331
5CE1
  5
5CE1
331
5CE9
  5
5CE9
331
5CF9
  5
5CFD
331
5B90
  5
5B90
331
5B59
  5
5B59
331
5C86
  5
5C86
331
5C2F
  5
5C2F
331
5B61
  5
5B61
331
5BE0
  5
5BE0
331
5C9E
  5
5C9E
331
5D01
  5
5D01
331
5BF0
  5
5BF0
331
5B32
  5
5B32
331
5CCE
  5
5CCE
331
5B79
  5
5B79
331
5C57
  5
5C57
331
5CD6
  5
5CD6
331
5B81
  5
5B81
331
5B4A
  5
5B4A
331
5C5F
  5
5C5F
331
5CDE
  5
5CDE
331
5C7F
  5
5C7F
331
5CE2
  5
5CE2
331
5C20
  5
5C20
331
5B91
  5
5B91
331
5B5A
  5
5B5A
331
5C87
  5
5C87
331
5BE1
  5
5BE1
331
5C30
  5
5C30
331
5B62
  5
5B62
331
5C9F
  5
5C9F
331
5C48
  5
5C48
331
5BF1
  5
5BF1
331
5B33
  5
5B33
331
5C58
  5
5C58
331
5B7A
  5
5B7A
331
5CCF
  5
5CCF
331
5C60
  5
5C60
331
5B4B
  5
5B4B
331
5B82
  5
5B82
331
5B8A
  5
5B8A
331
5CDF
  5
5CDF
331
5CE3
  5
5CE3
331
5CEB
  5
5CEB
331
5C21
  5
5C21
331
5C80
  5
5C80
331
5B5B
  5
5B5B
331
5C88
  5
5C88
331
5B63
  5
5B63
331
5BE2
  5
5BE2
331
5C49
  5
5C49
331
5CA0
  5
5CA0
331
5BEA
  5
5BEA
331
5D03
  5
5D04
331
5BF2
  5
5BF2
331
5B34
  5
5B34
331
5CD0
  5
5CD0
331
5C02
  5
5C02
331
5B44
  5
5B44
331
5C61
  5
5C61
331
5B83
  5
5B83
331
5CD8
  5
5CD8
331
5B4C
  5
5B4C
331
5B8B
  5
5B8B
331
5CE4
  5
5CE4
331
5CEC
  5
5CEC
331
5CF4
  5
5CF4
331
5C22
  5
5C22
331
5C81
  5
5C81
331
5C2A
  5
5C2A
331
5B5C
  5
5B5C
331
5BE3
  5
5BE3
331
5B64
  5
5B64
331
5CA1
  5
5CA1
331
5BEB
  5
5BEB
331
5C4A
  5
5C4A
331
5D04
  5
5CF9
331
5C52
  5
5C52
331
5CC9
  5
5CC9
331
5B35
  5
5B35
331
5BF3
  5
5BF3
331
5CD1
  5
5CD1
331
5B45
  5
5B45
331
5C03
  5
5C03
331
5B4D
  5
5B4D
331
5B84
  5
5B84
331
5CD9
  5
5CD9
331
5CE5
  5
5CE5
331
5CED
  5
5CED
331
5CFD
  5
5CFE
331
5C82
  5
5C82
331
5B94
  5
5B94
331
5C23
  5
5C23
331
5B55
  5
5B55
331
5B5D
  5
5B5D
331
5C2B
  5
5C2B
331
5B65
  5
5B65
331
5BE4
  5
5BE4
331
5BEC
  5
5BEC
331
5C4B
  5
5C4B
331
5D05
  5
5D05
331
5BA8
  5
5BA8
331
5BF4
  5
5BF4
331
5B36
  5
5B36
331
5C53
  5
5C53
331
5CCA
  5
5CCA
331
5CD2
  5
5CD2
331
5C04
  5
5C04
331
5B46
  5
5B46
331
5C5B
  5
5C5B
331
5B4E
  5
5B4E
331
5B85
  5
5B85
331
5CDA
  5
5CDA
331
5C7B
  5
5C7B
331
5CE6
  5
5CE6
331
5CEE
  5
5CEE
331
5CFE
  5
5CFF
331
5C24
  5
5C24
331
5B56
  5
5B56
331
5C83
  5
5C83
331
5C2C
  5
5C2C
331
5B5E
  5
5B5E
331
5C9B
  5
5C9B
331
5B66
  5
5B66
331
5BED
  5
5BED
331
5C4C
  5
5C4C
331
5BA9
  5
5BA9
331
5C54
  5
5C54
331
5CCB
  5
5CCB
331
5B37
  5
5B37
331
5BF5
  5
5BF5
331
5C05
  5
5C05
331
5B47
  5
5B47
331
5C5C
  5
5C5C
331
5CD3
  5
5CD3
331
5CDB
  5
5CDB
331
5B8E
  5
5B8E
331
5C7C
  5
5C7C
331
5CE7
  5
5CE7
331
5CFF
  5
5D00
331
5C84
  5
5C84
331
5B57
  5
5B57
331
5C25
  5
5C25
331
5B5F
  5
5B5F
331
5BA6
  5
5BA6
331
5C2D
  5
5C2D
331
5B67
  5
5B67
331
5C9C
  5
5C9C
331
5BEE
  5
5BEE
331
5C4D
  5
5C4D
331
5B30
  5
5B30
331
5CCC
  5
5CCC
331
5BF6
  5
5BF6
331
5C55
  5
5C55
331
5CD4
  5
5CD4
331
5C06
  5
5C06
331
5B48
  5
5B48
331
5C5D
  5
5C5D
331
5CDC
  5
5CDC
331
5C7D
  5
5C7D
331
5CE0
  5
5CE0
331
5CE8
  5
5CE8
331
5C26
  5
5C26
331
5C85
  5
5C85
331
5B58
  5
5B58
331
5B97
  5
5B97
331
5BA7
  5
5BA7
331
5C2E
  5
5C2E
331
5B60
  5
5B60
331
5B68
  5
5B68
331
5C9D
  5
5C9D
331
5BEF
  5
5BEF
331
5C4E
  5
5C4E
  0
SORTENTSTABLE
  5
3623
102
{ACAD_REACTORS
330
3622
102
}
330
3622
100
AcDbSortentsTable
330
361E
  0
SORTENTSTABLE
  5
5BC0
102
{ACAD_REACTORS
330
5BBF
102
}
330
5BBF
100
AcDbSortentsTable
330
5BAA
  0
SORTENTSTABLE
  5
5DA4
102
{ACAD_REACTORS
330
5DA3
102
}
330
5DA3
100
AcDbSortentsTable
330
5D9D
  0
XRECORD
  5
5F2E
102
{ACAD_REACTORS
330
5F2D
102
}
330
5F2D
100
AcDbXrecord
280
     1
 40
6455.0
  1
\A1;\U+22056.20
  0
XRECORD
  5
5F30
102
{ACAD_REACTORS
330
5F2F
102
}
330
5F2F
100
AcDbXrecord
280
     1
 40
6455.0
  1
\A1;\U+22056.20
  0
XRECORD
  5
5F32
102
{ACAD_REACTORS
330
5F31
102
}
330
5F31
100
AcDbXrecord
280
     1
 40
6455.0
  1
\A1;\U+22056.20
  0
XRECORD
  5
5F34
102
{ACAD_REACTORS
330
5F33
102
}
330
5F33
100
AcDbXrecord
280
     1
 40
6455.0
  1
\A1;\U+22056.20
  0
DIMASSOC
  5
5E81
102
{ACAD_REACTORS
330
5E79
102
}
330
5E79
100
AcDbDimAssoc
330
5E6E
 90
        3
 70
     0
 71
     0
  1
AcDbOsnapPointRef
 72
    13
331
5E6B
 73
     2
 91
        0
 40
0.0
 10
0.0
 20
0.0
 30
2.000000000000000E+50
 75
     0
  1
AcDbOsnapPointRef
 72
     6
331
5E6D
 73
     2
 91
        0
 40
1.0
 10
0.0
 20
0.0
 30
0.0
332
5E66
 74
     2
 92
        0
 75
     0
  0
DIMASSOC
  5
5E95
102
{ACAD_REACTORS
330
5E8D
102
}
330
5E8D
100
AcDbDimAssoc
330
5E82
 90
        3
 70
     0
 71
     0
  1
AcDbOsnapPointRef
 72
    13
331
5E68
 73
     2
 91
        0
 40
0.0
 10
0.0
 20
0.0
 30
2.000000000000000E+50
 75
     0
  1
AcDbOsnapPointRef
 72
     1
331
5E6A
 73
     2
 91
        0
 40
1.0
 10
0.0
 20
0.0
 30
2.000000000000000E+50
 75
     0
  0
LAYOUT
  5
1E
102
{ACAD_XDICTIONARY
360
7D4
102
}
102
{ACAD_REACTORS
330
1A
102
}
330
1A
100
AcDbPlotSettings
  1

  2
Bullzip PDF Printer
  4
A4
  6

 40
3.174999952316281
 41
3.174999952316281
 42
3.175003051757812
 43
3.17498779296875
 44
209.8886566162109
 45
297.0530090332031
 46
0.0
 47
0.0
 48
6.561544945354852
 49
3.282189374834842
140
296.6096419909582
141
206.4421558651099
142
1.0
143
1.0
 70
   672
 72
     1
 73
     1
 74
     4
  7
RINTAL 1.10.ctb
 75
    16
147
25.4
 76
     0
 77
     2
 78
   300
148
-6.561544945354852
149
-3.282189374834842
100
AcDbLayout
  1
Layout1
 70
     0
 71
     1
 10
3.386557152386103
 20
0.1071894225185588
 11
300.4395661855892
 21
209.9958460387295
 12
0.0
 22
0.0
 32
0.0
 14
6.561544945354852
 24
3.282189374834857
 34
0.0
 15
296.6096419909582
 25
206.4421558651099
 35
0.0
146
0.0
 13
0.0
 23
0.0
 33
0.0
 16
1.0
 26
0.0
 36
0.0
 17
0.0
 27
1.0
 37
0.0
 76
     0
330
1B
331
99A
1001
ACAD_PSEXT
1000
Bullzip PDF Printer
1000
Bullzip PDF Printer
1000
BULLZIP
1000
Bullzip PDF Printer 7.1.0.1218
1070
     0
  0
LAYOUT
  5
22
102
{ACAD_REACTORS
330
1A
102
}
330
1A
100
AcDbPlotSettings
  1

  2
none_device
  4
Letter_(8.50_x_11.00_Inches)
  6

 40
6.349999904632567
 41
6.349999904632567
 42
6.350006103515625
 43
6.350006103515625
 44
215.8999938964844
 45
279.3999938964844
 46
0.0
 47
0.0
 48
0.0
 49
0.0
140
0.0
141
0.0
142
1.0
143
1.814923964439508
 70
 11952
 72
     0
 73
     1
 74
     0
  7

 75
     0
147
0.5509872697663251
 76
     0
 77
     2
 78
   300
148
-446.0066020461316
149
52.06858644984034
100
AcDbLayout
  1
Model
 70
     1
 71
     0
 10
0.0
 20
0.0
 11
12.0
 21
9.0
 12
0.0
 22
0.0
 32
0.0
 14
1.000000000000000E+20
 24
1.000000000000000E+20
 34
1.000000000000000E+20
 15
-1.000000000000000E+20
 25
-1.000000000000000E+20
 35
-1.000000000000000E+20
146
0.0
 13
0.0
 23
0.0
 33
0.0
 16
1.0
 26
0.0
 36
0.0
 17
0.0
 27
1.0
 37
0.0
 76
     0
330
1F
331
29
1001
ACAD_PSEXT
1000
Brak
1000
Brak
1000
Nie można zastosować.
1000
Arkusz nie zostanie wydrukowany dopóki nie wybrano konfiguracji plotera.
1070
     0
  0
MATERIAL
  5
3D
102
{ACAD_XDICTIONARY
360
3D1A
102
}
102
{ACAD_REACTORS
330
3B
102
}
330
3B
100
AcDbMaterial
  1
ByBlock
 73
     1
 78
     1
172
     1
176
     1
270
     1
274
     1
  0
MATERIAL
  5
3C
102
{ACAD_XDICTIONARY
360
3D18
102
}
102
{ACAD_REACTORS
330
3B
102
}
330
3B
100
AcDbMaterial
  1
ByLayer
 73
     1
 78
     1
172
     1
176
     1
270
     1
274
     1
  0
MATERIAL
  5
3E
102
{ACAD_XDICTIONARY
360
3D1C
102
}
102
{ACAD_REACTORS
330
3B
102
}
330
3B
100
AcDbMaterial
  1
Global
 73
     1
 78
     1
172
     1
176
     1
270
     1
274
     1
  0
MLEADERSTYLE
  5
3567
102
{ACAD_REACTORS
330
489
102
}
330
489
100
AcDbMLeaderStyle
170
     2
171
     1
172
     0
 90
        2
 40
0.0
 41
0.0
173
     1
 91
-1056964608
340
14
 92
       -2
290
     1
 42
0.09
291
     1
 43
0.36
  3
Standard
 44
0.18
300

342
11
174
     1
178
     6
175
     1
176
     0
 93
-1056964608
 45
0.18
292
     0
297
     0
 46
0.18
 94
-1056964608
 47
1.0
 49
1.0
140
1.0
293
     1
141
0.0
294
     1
177
     0
142
1.0
295
     0
296
     0
143
0.125
1001
ACAD_MLEADERVER
1070
     2
  0
MLINESTYLE
  5
18
102
{ACAD_REACTORS
330
17
102
}
330
17
100
AcDbMlineStyle
  2
STANDARD
 70
     0
  3

 62
   256
 51
90.0
 52
90.0
 71
     2
 49
0.5
 62
   256
  6
BYLAYER
 49
-0.5
 62
   256
  6
BYLAYER
  0
ACDBPLACEHOLDER
  5
F
102
{ACAD_REACTORS
330
E
102
}
330
E
  0
SCALE
  5
3F84
102
{ACAD_REACTORS
330
3545
102
}
330
3545
100
AcDbScale
 70
     0
300
2:1_XREF
140
2.0
141
1.0
290
     0
1001
ACAD
1000
AcRTDxfName
1000
SCALE
1000
AcRTDxfName
1000
SCALE
1000
AcRTDxfName
1000
SCALE
1000
AcRTDxfName
1000
SCALE
1000
AcRTDxfName
1000
SCALE
1000
AcRTDxfName
1000
SCALE
1000
AcRTDxfName
1000
SCALE
1000
AcRTDxfName
1000
SCALE
1000
AcRTDxfName
1000
SCALE
1000
AcRTDxfName
1000
SCALE
1000
AcRTDxfName
1000
SCALE
1000
AcRTDxfName
1000
SCALE
1000
AcRTDxfName
1000
SCALE
1000
AcRTDxfName
1000
SCALE
1000
AcRTDxfName
1000
SCALE
1000
AcRTDxfName
1000
SCALE
1000
AcRTDxfName
1000
SCALE
1000
AcRTDxfName
1000
SCALE
1000
AcRTDxfName
1000
SCALE
1000
AcRTDxfName
1000
SCALE
1000
AcRTDxfName
1000
SCALE
1000
AcRTDxfName
1000
SCALE
1000
AcRTDxfName
1000
SCALE
1000
AcRTDxfName
1000
SCALE
1000
AcRTDxfName
1000
SCALE
1000
AcRTDxfName
1000
SCALE
1000
AcRTDxfName
1000
SCALE
1000
AcRTDxfName
1000
SCALE
1000
AcRTDxfName
1000
SCALE
1000
AcRTDxfName
1000
SCALE
1000
AcRTDxfName
1000
SCALE
1000
AcRTDxfName
1000
SCALE
1000
AcRTDxfName
1000
SCALE
1000
AcRTDxfName
1000
SCALE
1000
AcRTDxfName
1000
SCALE
1000
AcRTDxfName
1000
SCALE
1000
AcRTDxfName
1000
SCALE
1000
AcRTDxfName
1000
SCALE
1000
AcRTDxfName
1000
SCALE
1000
AcRTDxfName
1000
SCALE
1000
AcRTDxfName
1000
SCALE
1000
AcRTDxfName
1000
SCALE
1000
AcRTDxfName
1000
SCALE
1000
AcRTDxfName
1000
SCALE
1000
AcRTDxfName
1000
SCALE
1000
AcRTDxfName
1000
SCALE
1000
AcRTDxfName
1000
SCALE
1000
AcRTDxfName
1000
SCALE
1000
AcRTDxfName
1000
SCALE
1000
AcRTDxfName
1000
SCALE
1000
AcRTDxfName
1000
SCALE
1000
AcRTDxfName
1000
SCALE
1000
AcRTDxfName
1000
SCALE
1000
AcRTDxfName
1000
SCALE
1000
AcRTDxfName
1000
SCALE
1000
AcRTDxfName
1000
SCALE
1000
AcRTDxfName
1000
SCALE
1000
AcRTDxfName
1000
SCALE
1000
AcRTDxfName
1000
SCALE
1000
AcRTDxfName
1000
SCALE
1000
AcRTDxfName
1000
SCALE
1000
AcRTDxfName
1000
SCALE
1000
AcRTDxfName
1000
SCALE
1000
AcRTDxfName
1000
SCALE
1000
AcRTDxfName
1000
SCALE
1000
AcRTDxfName
1000
SCALE
  0
SCALE
  5
3FA2
102
{ACAD_REACTORS
330
3545
102
}
330
3545
100
AcDbScale
 70
     0
300
1:16_XREF
140
1.0
141
16.0
290
     0
1001
ACAD
1000
AcRTDxfName
1000
SCALE
1000
AcRTDxfName
1000
SCALE
1000
AcRTDxfName
1000
SCALE
1000
AcRTDxfName
1000
SCALE
1000
AcRTDxfName
1000
SCALE
1000
AcRTDxfName
1000
SCALE
1000
AcRTDxfName
1000
SCALE
1000
AcRTDxfName
1000
SCALE
1000
AcRTDxfName
1000
SCALE
1000
AcRTDxfName
1000
SCALE
1000
AcRTDxfName
1000
SCALE
1000
AcRTDxfName
1000
SCALE
1000
AcRTDxfName
1000
SCALE
1000
AcRTDxfName
1000
SCALE
1000
AcRTDxfName
1000
SCALE
1000
AcRTDxfName
1000
SCALE
1000
AcRTDxfName
1000
SCALE
1000
AcRTDxfName
1000
SCALE
1000
AcRTDxfName
1000
SCALE
1000
AcRTDxfName
1000
SCALE
1000
AcRTDxfName
1000
SCALE
1000
AcRTDxfName
1000
SCALE
1000
AcRTDxfName
1000
SCALE
1000
AcRTDxfName
1000
SCALE
1000
AcRTDxfName
1000
SCALE
1000
AcRTDxfName
1000
SCALE
1000
AcRTDxfName
1000
SCALE
1000
AcRTDxfName
1000
SCALE
1000
AcRTDxfName
1000
SCALE
1000
AcRTDxfName
1000
SCALE
1000
AcRTDxfName
1000
SCALE
1000
AcRTDxfName
1000
SCALE
1000
AcRTDxfName
1000
SCALE
1000
AcRTDxfName
1000
SCALE
1000
AcRTDxfName
1000
SCALE
1000
AcRTDxfName
1000
SCALE
1000
AcRTDxfName
1000
SCALE
1000
AcRTDxfName
1000
SCALE
1000
AcRTDxfName
1000
SCALE
1000
AcRTDxfName
1000
SCALE
1000
AcRTDxfName
1000
SCALE
1000
AcRTDxfName
1000
SCALE
1000
AcRTDxfName
1000
SCALE
1000
AcRTDxfName
1000
SCALE
1000
AcRTDxfName
1000
SCALE
1000
AcRTDxfName
1000
SCALE
1000
AcRTDxfName
1000
SCALE
1000
AcRTDxfName
1000
SCALE
1000
AcRTDxfName
1000
SCALE
1000
AcRTDxfName
1000
SCALE
1000
AcRTDxfName
1000
SCALE
1000
AcRTDxfName
1000
SCALE
1000
AcRTDxfName
1000
SCALE
1000
AcRTDxfName
1000
SCALE
1000
AcRTDxfName
1000
SCALE
1000
AcRTDxfName
1000
SCALE
1000
AcRTDxfName
1000
SCALE
1000
AcRTDxfName
1000
SCALE
1000
AcRTDxfName
1000
SCALE
1000
AcRTDxfName
1000
SCALE
1000
AcRTDxfName
1000
SCALE
1000
AcRTDxfName
1000
SCALE
1000
AcRTDxfName
1000
SCALE
1000
AcRTDxfName
1000
SCALE
1000
AcRTDxfName
1000
SCALE
1000
AcRTDxfName
1000
SCALE
  0
SCALE
  5
3FA3
102
{ACAD_REACTORS
330
3545
102
}
330
3545
100
AcDbScale
 70
     0
300
1:100_XREF
140
1.0
141
100.0
290
     0
1001
ACAD
1000
AcRTDxfName
1000
SCALE
1000
AcRTDxfName
1000
SCALE
1000
AcRTDxfName
1000
SCALE
1000
AcRTDxfName
1000
SCALE
1000
AcRTDxfName
1000
SCALE
1000
AcRTDxfName
1000
SCALE
1000
AcRTDxfName
1000
SCALE
1000
AcRTDxfName
1000
SCALE
1000
AcRTDxfName
1000
SCALE
1000
AcRTDxfName
1000
SCALE
1000
AcRTDxfName
1000
SCALE
1000
AcRTDxfName
1000
SCALE
1000
AcRTDxfName
1000
SCALE
1000
AcRTDxfName
1000
SCALE
1000
AcRTDxfName
1000
SCALE
1000
AcRTDxfName
1000
SCALE
1000
AcRTDxfName
1000
SCALE
1000
AcRTDxfName
1000
SCALE
1000
AcRTDxfName
1000
SCALE
1000
AcRTDxfName
1000
SCALE
1000
AcRTDxfName
1000
SCALE
1000
AcRTDxfName
1000
SCALE
1000
AcRTDxfName
1000
SCALE
1000
AcRTDxfName
1000
SCALE
1000
AcRTDxfName
1000
SCALE
1000
AcRTDxfName
1000
SCALE
1000
AcRTDxfName
1000
SCALE
1000
AcRTDxfName
1000
SCALE
1000
AcRTDxfName
1000
SCALE
1000
AcRTDxfName
1000
SCALE
1000
AcRTDxfName
1000
SCALE
1000
AcRTDxfName
1000
SCALE
1000
AcRTDxfName
1000
SCALE
1000
AcRTDxfName
1000
SCALE
1000
AcRTDxfName
1000
SCALE
1000
AcRTDxfName
1000
SCALE
1000
AcRTDxfName
1000
SCALE
1000
AcRTDxfName
1000
SCALE
1000
AcRTDxfName
1000
SCALE
1000
AcRTDxfName
1000
SCALE
1000
AcRTDxfName
1000
SCALE
1000
AcRTDxfName
1000
SCALE
1000
AcRTDxfName
1000
SCALE
1000
AcRTDxfName
1000
SCALE
1000
AcRTDxfName
1000
SCALE
1000
AcRTDxfName
1000
SCALE
1000
AcRTDxfName
1000
SCALE
1000
AcRTDxfName
1000
SCALE
1000
AcRTDxfName
1000
SCALE
1000
AcRTDxfName
1000
SCALE
1000
AcRTDxfName
1000
SCALE
1000
AcRTDxfName
1000
SCALE
1000
AcRTDxfName
1000
SCALE
1000
AcRTDxfName
1000
SCALE
1000
AcRTDxfName
1000
SCALE
1000
AcRTDxfName
1000
SCALE
1000
AcRTDxfName
1000
SCALE
1000
AcRTDxfName
1000
SCALE
1000
AcRTDxfName
1000
SCALE
1000
AcRTDxfName
1000
SCALE
1000
AcRTDxfName
1000
SCALE
1000
AcRTDxfName
1000
SCALE
1000
AcRTDxfName
1000
SCALE
1000
AcRTDxfName
1000
SCALE
1000
AcRTDxfName
1000
SCALE
1000
AcRTDxfName
1000
SCALE
  0
SCALE
  5
3F95
102
{ACAD_REACTORS
330
3545
102
}
330
3545
100
AcDbScale
 70
     0
300
1:500_XREF
140
1.0
141
500.0
290
     0
1001
ACAD
1000
AcRTDxfName
1000
SCALE
1000
AcRTDxfName
1000
SCALE
1000
AcRTDxfName
1000
SCALE
1000
AcRTDxfName
1000
SCALE
1000
AcRTDxfName
1000
SCALE
1000
AcRTDxfName
1000
SCALE
1000
AcRTDxfName
1000
SCALE
1000
AcRTDxfName
1000
SCALE
1000
AcRTDxfName
1000
SCALE
1000
AcRTDxfName
1000
SCALE
1000
AcRTDxfName
1000
SCALE
1000
AcRTDxfName
1000
SCALE
1000
AcRTDxfName
1000
SCALE
1000
AcRTDxfName
1000
SCALE
1000
AcRTDxfName
1000
SCALE
1000
AcRTDxfName
1000
SCALE
1000
AcRTDxfName
1000
SCALE
1000
AcRTDxfName
1000
SCALE
1000
AcRTDxfName
1000
SCALE
1000
AcRTDxfName
1000
SCALE
1000
AcRTDxfName
1000
SCALE
1000
AcRTDxfName
1000
SCALE
1000
AcRTDxfName
1000
SCALE
1000
AcRTDxfName
1000
SCALE
1000
AcRTDxfName
1000
SCALE
1000
AcRTDxfName
1000
SCALE
1000
AcRTDxfName
1000
SCALE
1000
AcRTDxfName
1000
SCALE
1000
AcRTDxfName
1000
SCALE
1000
AcRTDxfName
1000
SCALE
1000
AcRTDxfName
1000
SCALE
1000
AcRTDxfName
1000
SCALE
1000
AcRTDxfName
1000
SCALE
1000
AcRTDxfName
1000
SCALE
1000
AcRTDxfName
1000
SCALE
1000
AcRTDxfName
1000
SCALE
1000
AcRTDxfName
1000
SCALE
1000
AcRTDxfName
1000
SCALE
1000
AcRTDxfName
1000
SCALE
1000
AcRTDxfName
1000
SCALE
1000
AcRTDxfName
1000
SCALE
1000
AcRTDxfName
1000
SCALE
1000
AcRTDxfName
1000
SCALE
1000
AcRTDxfName
1000
SCALE
1000
AcRTDxfName
1000
SCALE
1000
AcRTDxfName
1000
SCALE
1000
AcRTDxfName
1000
SCALE
1000
AcRTDxfName
1000
SCALE
1000
AcRTDxfName
1000
SCALE
1000
AcRTDxfName
1000
SCALE
1000
AcRTDxfName
1000
SCALE
1000
AcRTDxfName
1000
SCALE
1000
AcRTDxfName
1000
SCALE
1000
AcRTDxfName
1000
SCALE
1000
AcRTDxfName
1000
SCALE
1000
AcRTDxfName
1000
SCALE
1000
AcRTDxfName
1000
SCALE
1000
AcRTDxfName
1000
SCALE
1000
AcRTDxfName
1000
SCALE
1000
AcRTDxfName
1000
SCALE
1000
AcRTDxfName
1000
SCALE
1000
AcRTDxfName
1000
SCALE
1000
AcRTDxfName
1000
SCALE
1000
AcRTDxfName
1000
SCALE
1000
AcRTDxfName
1000
SCALE
1000
AcRTDxfName
1000
SCALE
1000
AcRTDxfName
1000
SCALE
1000
AcRTDxfName
1000
SCALE
1000
AcRTDxfName
1000
SCALE
1000
AcRTDxfName
1000
SCALE
1000
AcRTDxfName
1000
SCALE
1000
AcRTDxfName
1000
SCALE
1000
AcRTDxfName
1000
SCALE
1000
AcRTDxfName
1000
SCALE
1000
AcRTDxfName
1000
SCALE
1000
AcRTDxfName
1000
SCALE
1000
AcRTDxfName
1000
SCALE
1000
AcRTDxfName
1000
SCALE
1000
AcRTDxfName
1000
SCALE
1000
AcRTDxfName
1000
SCALE
1000
AcRTDxfName
1000
SCALE
1000
AcRTDxfName
1000
SCALE
1000
AcRTDxfName
1000
SCALE
1000
AcRTDxfName
1000
SCALE
1000
AcRTDxfName
1000
SCALE
1000
AcRTDxfName
1000
SCALE
1000
AcRTDxfName
1000
SCALE
1000
AcRTDxfName
1000
SCALE
1000
AcRTDxfName
1000
SCALE
1000
AcRTDxfName
1000
SCALE
1000
AcRTDxfName
1000
SCALE
1000
AcRTDxfName
1000
SCALE
1000
AcRTDxfName
1000
SCALE
1000
AcRTDxfName
1000
SCALE
1000
AcRTDxfName
1000
SCALE
1000
AcRTDxfName
1000
SCALE
1000
AcRTDxfName
1000
SCALE
1000
AcRTDxfName
1000
SCALE
1000
AcRTDxfName
1000
SCALE
1000
AcRTDxfName
1000
SCALE
1000
AcRTDxfName
1000
SCALE
1000
AcRTDxfName
1000
SCALE
1000
AcRTDxfName
1000
SCALE
1000
AcRTDxfName
1000
SCALE
1000
AcRTDxfName
1000
SCALE
1000
AcRTDxfName
1000
SCALE
1000
AcRTDxfName
1000
SCALE
1000
AcRTDxfName
1000
SCALE
1000
AcRTDxfName
1000
SCALE
1000
AcRTDxfName
1000
SCALE
1000
AcRTDxfName
1000
SCALE
1000
AcRTDxfName
1000
SCALE
1000
AcRTDxfName
1000
SCALE
1000
AcRTDxfName
1000
SCALE
1000
AcRTDxfName
1000
SCALE
1000
AcRTDxfName
1000
SCALE
1000
AcRTDxfName
1000
SCALE
1000
AcRTDxfName
1000
SCALE
1000
AcRTDxfName
1000
SCALE
1000
AcRTDxfName
1000
SCALE
1000
AcRTDxfName
1000
SCALE
1000
AcRTDxfName
1000
SCALE
1000
AcRTDxfName
1000
SCALE
1000
AcRTDxfName
1000
SCALE
1000
AcRTDxfName
1000
SCALE
1000
AcRTDxfName
1000
SCALE
1000
AcRTDxfName
1000
SCALE
1000
AcRTDxfName
1000
SCALE
1000
AcRTDxfName
1000
SCALE
1000
AcRTDxfName
1000
SCALE
1000
AcRTDxfName
1000
SCALE
1000
AcRTDxfName
1000
SCALE
1000
AcRTDxfName
1000
SCALE
1000
AcRTDxfName
1000
SCALE
1000
AcRTDxfName
1000
SCALE
1000
AcRTDxfName
1000
SCALE
1000
AcRTDxfName
1000
SCALE
1000
AcRTDxfName
1000
SCALE
1000
AcRTDxfName
1000
SCALE
1000
AcRTDxfName
1000
SCALE
1000
AcRTDxfName
1000
SCALE
1000
AcRTDxfName
1000
SCALE
1000
AcRTDxfName
1000
SCALE
1000
AcRTDxfName
1000
SCALE
1000
AcRTDxfName
1000
SCALE
1000
AcRTDxfName
1000
SCALE
1000
AcRTDxfName
1000
SCALE
1000
AcRTDxfName
1000
SCALE
1000
AcRTDxfName
1000
SCALE
1000
AcRTDxfName
1000
SCALE
1000
AcRTDxfName
1000
SCALE
1000
AcRTDxfName
1000
SCALE
  0
SCALE
  5
3FA4
102
{ACAD_REACTORS
330
3545
102
}
330
3545
100
AcDbScale
 70
     0
300
1:20_XREF
140
1.0
141
20.0
290
     0
1001
ACAD
1000
AcRTDxfName
1000
SCALE
1000
AcRTDxfName
1000
SCALE
1000
AcRTDxfName
1000
SCALE
1000
AcRTDxfName
1000
SCALE
1000
AcRTDxfName
1000
SCALE
1000
AcRTDxfName
1000
SCALE
1000
AcRTDxfName
1000
SCALE
1000
AcRTDxfName
1000
SCALE
1000
AcRTDxfName
1000
SCALE
1000
AcRTDxfName
1000
SCALE
1000
AcRTDxfName
1000
SCALE
1000
AcRTDxfName
1000
SCALE
1000
AcRTDxfName
1000
SCALE
1000
AcRTDxfName
1000
SCALE
1000
AcRTDxfName
1000
SCALE
1000
AcRTDxfName
1000
SCALE
1000
AcRTDxfName
1000
SCALE
1000
AcRTDxfName
1000
SCALE
1000
AcRTDxfName
1000
SCALE
1000
AcRTDxfName
1000
SCALE
1000
AcRTDxfName
1000
SCALE
1000
AcRTDxfName
1000
SCALE
1000
AcRTDxfName
1000
SCALE
1000
AcRTDxfName
1000
SCALE
1000
AcRTDxfName
1000
SCALE
1000
AcRTDxfName
1000
SCALE
1000
AcRTDxfName
1000
SCALE
1000
AcRTDxfName
1000
SCALE
1000
AcRTDxfName
1000
SCALE
1000
AcRTDxfName
1000
SCALE
1000
AcRTDxfName
1000
SCALE
1000
AcRTDxfName
1000
SCALE
1000
AcRTDxfName
1000
SCALE
1000
AcRTDxfName
1000
SCALE
1000
AcRTDxfName
1000
SCALE
1000
AcRTDxfName
1000
SCALE
1000
AcRTDxfName
1000
SCALE
1000
AcRTDxfName
1000
SCALE
1000
AcRTDxfName
1000
SCALE
1000
AcRTDxfName
1000
SCALE
1000
AcRTDxfName
1000
SCALE
1000
AcRTDxfName
1000
SCALE
1000
AcRTDxfName
1000
SCALE
1000
AcRTDxfName
1000
SCALE
1000
AcRTDxfName
1000
SCALE
1000
AcRTDxfName
1000
SCALE
1000
AcRTDxfName
1000
SCALE
1000
AcRTDxfName
1000
SCALE
1000
AcRTDxfName
1000
SCALE
1000
AcRTDxfName
1000
SCALE
1000
AcRTDxfName
1000
SCALE
1000
AcRTDxfName
1000
SCALE
1000
AcRTDxfName
1000
SCALE
1000
AcRTDxfName
1000
SCALE
1000
AcRTDxfName
1000
SCALE
1000
AcRTDxfName
1000
SCALE
1000
AcRTDxfName
1000
SCALE
1000
AcRTDxfName
1000
SCALE
1000
AcRTDxfName
1000
SCALE
1000
AcRTDxfName
1000
SCALE
1000
AcRTDxfName
1000
SCALE
1000
AcRTDxfName
1000
SCALE
1000
AcRTDxfName
1000
SCALE
1000
AcRTDxfName
1000
SCALE
1000
AcRTDxfName
1000
SCALE
1000
AcRTDxfName
1000
SCALE
  0
SCALE
  5
3FA5
102
{ACAD_REACTORS
330
3545
102
}
330
3545
100
AcDbScale
 70
     0
300
4:1_XREF
140
4.0
141
1.0
290
     0
1001
ACAD
1000
AcRTDxfName
1000
SCALE
1000
AcRTDxfName
1000
SCALE
1000
AcRTDxfName
1000
SCALE
1000
AcRTDxfName
1000
SCALE
1000
AcRTDxfName
1000
SCALE
1000
AcRTDxfName
1000
SCALE
1000
AcRTDxfName
1000
SCALE
1000
AcRTDxfName
1000
SCALE
1000
AcRTDxfName
1000
SCALE
1000
AcRTDxfName
1000
SCALE
1000
AcRTDxfName
1000
SCALE
1000
AcRTDxfName
1000
SCALE
1000
AcRTDxfName
1000
SCALE
1000
AcRTDxfName
1000
SCALE
1000
AcRTDxfName
1000
SCALE
1000
AcRTDxfName
1000
SCALE
1000
AcRTDxfName
1000
SCALE
1000
AcRTDxfName
1000
SCALE
1000
AcRTDxfName
1000
SCALE
1000
AcRTDxfName
1000
SCALE
1000
AcRTDxfName
1000
SCALE
1000
AcRTDxfName
1000
SCALE
1000
AcRTDxfName
1000
SCALE
1000
AcRTDxfName
1000
SCALE
1000
AcRTDxfName
1000
SCALE
1000
AcRTDxfName
1000
SCALE
1000
AcRTDxfName
1000
SCALE
1000
AcRTDxfName
1000
SCALE
1000
AcRTDxfName
1000
SCALE
1000
AcRTDxfName
1000
SCALE
1000
AcRTDxfName
1000
SCALE
1000
AcRTDxfName
1000
SCALE
1000
AcRTDxfName
1000
SCALE
1000
AcRTDxfName
1000
SCALE
1000
AcRTDxfName
1000
SCALE
1000
AcRTDxfName
1000
SCALE
1000
AcRTDxfName
1000
SCALE
1000
AcRTDxfName
1000
SCALE
1000
AcRTDxfName
1000
SCALE
1000
AcRTDxfName
1000
SCALE
1000
AcRTDxfName
1000
SCALE
1000
AcRTDxfName
1000
SCALE
1000
AcRTDxfName
1000
SCALE
1000
AcRTDxfName
1000
SCALE
1000
AcRTDxfName
1000
SCALE
1000
AcRTDxfName
1000
SCALE
1000
AcRTDxfName
1000
SCALE
1000
AcRTDxfName
1000
SCALE
1000
AcRTDxfName
1000
SCALE
1000
AcRTDxfName
1000
SCALE
1000
AcRTDxfName
1000
SCALE
1000
AcRTDxfName
1000
SCALE
1000
AcRTDxfName
1000
SCALE
1000
AcRTDxfName
1000
SCALE
1000
AcRTDxfName
1000
SCALE
1000
AcRTDxfName
1000
SCALE
1000
AcRTDxfName
1000
SCALE
1000
AcRTDxfName
1000
SCALE
1000
AcRTDxfName
1000
SCALE
1000
AcRTDxfName
1000
SCALE
1000
AcRTDxfName
1000
SCALE
1000
AcRTDxfName
1000
SCALE
1000
AcRTDxfName
1000
SCALE
1000
AcRTDxfName
1000
SCALE
1000
AcRTDxfName
1000
SCALE
1000
AcRTDxfName
1000
SCALE
  0
SCALE
  5
3FA6
102
{ACAD_REACTORS
330
3545
102
}
330
3545
100
AcDbScale
 70
     0
300
1" = 1'-0"_XREF
140
1.0
141
12.0
290
     0
  0
SCALE
  5
3F8E
102
{ACAD_REACTORS
330
3545
102
}
330
3545
100
AcDbScale
 70
     0
300
1:50_XREF
140
1.0
141
50.0
290
     0
1001
ACAD
1000
AcRTDxfName
1000
SCALE
1000
AcRTDxfName
1000
SCALE
1000
AcRTDxfName
1000
SCALE
1000
AcRTDxfName
1000
SCALE
1000
AcRTDxfName
1000
SCALE
1000
AcRTDxfName
1000
SCALE
1000
AcRTDxfName
1000
SCALE
1000
AcRTDxfName
1000
SCALE
1000
AcRTDxfName
1000
SCALE
1000
AcRTDxfName
1000
SCALE
1000
AcRTDxfName
1000
SCALE
1000
AcRTDxfName
1000
SCALE
1000
AcRTDxfName
1000
SCALE
1000
AcRTDxfName
1000
SCALE
1000
AcRTDxfName
1000
SCALE
1000
AcRTDxfName
1000
SCALE
1000
AcRTDxfName
1000
SCALE
1000
AcRTDxfName
1000
SCALE
1000
AcRTDxfName
1000
SCALE
1000
AcRTDxfName
1000
SCALE
1000
AcRTDxfName
1000
SCALE
1000
AcRTDxfName
1000
SCALE
1000
AcRTDxfName
1000
SCALE
1000
AcRTDxfName
1000
SCALE
1000
AcRTDxfName
1000
SCALE
1000
AcRTDxfName
1000
SCALE
1000
AcRTDxfName
1000
SCALE
1000
AcRTDxfName
1000
SCALE
1000
AcRTDxfName
1000
SCALE
1000
AcRTDxfName
1000
SCALE
1000
AcRTDxfName
1000
SCALE
1000
AcRTDxfName
1000
SCALE
1000
AcRTDxfName
1000
SCALE
1000
AcRTDxfName
1000
SCALE
1000
AcRTDxfName
1000
SCALE
1000
AcRTDxfName
1000
SCALE
1000
AcRTDxfName
1000
SCALE
1000
AcRTDxfName
1000
SCALE
1000
AcRTDxfName
1000
SCALE
1000
AcRTDxfName
1000
SCALE
1000
AcRTDxfName
1000
SCALE
1000
AcRTDxfName
1000
SCALE
1000
AcRTDxfName
1000
SCALE
1000
AcRTDxfName
1000
SCALE
1000
AcRTDxfName
1000
SCALE
1000
AcRTDxfName
1000
SCALE
1000
AcRTDxfName
1000
SCALE
1000
AcRTDxfName
1000
SCALE
1000
AcRTDxfName
1000
SCALE
1000
AcRTDxfName
1000
SCALE
1000
AcRTDxfName
1000
SCALE
1000
AcRTDxfName
1000
SCALE
1000
AcRTDxfName
1000
SCALE
1000
AcRTDxfName
1000
SCALE
1000
AcRTDxfName
1000
SCALE
1000
AcRTDxfName
1000
SCALE
1000
AcRTDxfName
1000
SCALE
1000
AcRTDxfName
1000
SCALE
1000
AcRTDxfName
1000
SCALE
1000
AcRTDxfName
1000
SCALE
1000
AcRTDxfName
1000
SCALE
1000
AcRTDxfName
1000
SCALE
1000
AcRTDxfName
1000
SCALE
1000
AcRTDxfName
1000
SCALE
1000
AcRTDxfName
1000
SCALE
1000
AcRTDxfName
1000
SCALE
  0
SCALE
  5
3FA7
102
{ACAD_REACTORS
330
3545
102
}
330
3545
100
AcDbScale
 70
     0
300
8:1_XREF
140
8.0
141
1.0
290
     0
1001
ACAD
1000
AcRTDxfName
1000
SCALE
1000
AcRTDxfName
1000
SCALE
1000
AcRTDxfName
1000
SCALE
1000
AcRTDxfName
1000
SCALE
1000
AcRTDxfName
1000
SCALE
1000
AcRTDxfName
1000
SCALE
1000
AcRTDxfName
1000
SCALE
1000
AcRTDxfName
1000
SCALE
1000
AcRTDxfName
1000
SCALE
1000
AcRTDxfName
1000
SCALE
1000
AcRTDxfName
1000
SCALE
1000
AcRTDxfName
1000
SCALE
1000
AcRTDxfName
1000
SCALE
1000
AcRTDxfName
1000
SCALE
1000
AcRTDxfName
1000
SCALE
1000
AcRTDxfName
1000
SCALE
1000
AcRTDxfName
1000
SCALE
1000
AcRTDxfName
1000
SCALE
1000
AcRTDxfName
1000
SCALE
1000
AcRTDxfName
1000
SCALE
1000
AcRTDxfName
1000
SCALE
1000
AcRTDxfName
1000
SCALE
1000
AcRTDxfName
1000
SCALE
1000
AcRTDxfName
1000
SCALE
1000
AcRTDxfName
1000
SCALE
1000
AcRTDxfName
1000
SCALE
1000
AcRTDxfName
1000
SCALE
1000
AcRTDxfName
1000
SCALE
1000
AcRTDxfName
1000
SCALE
1000
AcRTDxfName
1000
SCALE
1000
AcRTDxfName
1000
SCALE
1000
AcRTDxfName
1000
SCALE
1000
AcRTDxfName
1000
SCALE
1000
AcRTDxfName
1000
SCALE
1000
AcRTDxfName
1000
SCALE
1000
AcRTDxfName
1000
SCALE
1000
AcRTDxfName
1000
SCALE
1000
AcRTDxfName
1000
SCALE
1000
AcRTDxfName
1000
SCALE
1000
AcRTDxfName
1000
SCALE
1000
AcRTDxfName
1000
SCALE
1000
AcRTDxfName
1000
SCALE
1000
AcRTDxfName
1000
SCALE
1000
AcRTDxfName
1000
SCALE
1000
AcRTDxfName
1000
SCALE
1000
AcRTDxfName
1000
SCALE
1000
AcRTDxfName
1000
SCALE
1000
AcRTDxfName
1000
SCALE
1000
AcRTDxfName
1000
SCALE
1000
AcRTDxfName
1000
SCALE
1000
AcRTDxfName
1000
SCALE
1000
AcRTDxfName
1000
SCALE
1000
AcRTDxfName
1000
SCALE
1000
AcRTDxfName
1000
SCALE
1000
AcRTDxfName
1000
SCALE
1000
AcRTDxfName
1000
SCALE
1000
AcRTDxfName
1000
SCALE
1000
AcRTDxfName
1000
SCALE
1000
AcRTDxfName
1000
SCALE
1000
AcRTDxfName
1000
SCALE
1000
AcRTDxfName
1000
SCALE
1000
AcRTDxfName
1000
SCALE
1000
AcRTDxfName
1000
SCALE
1000
AcRTDxfName
1000
SCALE
1000
AcRTDxfName
1000
SCALE
1000
AcRTDxfName
1000
SCALE
  0
SCALE
  5
3F87
102
{ACAD_REACTORS
330
3545
102
}
330
3545
100
AcDbScale
 70
     0
300
1/2" = 1'-0"_XREF
140
0.5
141
12.0
290
     0
  0
SCALE
  5
3F88
102
{ACAD_REACTORS
330
3545
102
}
330
3545
100
AcDbScale
 70
     0
300
3/8" = 1'-0"_XREF
140
0.375
141
12.0
290
     0
  0
SCALE
  5
3F9C
102
{ACAD_REACTORS
330
3545
102
}
330
3545
100
AcDbScale
 70
     0
300
1" = 1'_XREF
140
1.0
141
1.0
290
     0
1001
ACAD
1000
AcRTDxfName
1000
SCALE
1000
AcRTDxfName
1000
SCALE
1000
AcRTDxfName
1000
SCALE
1000
AcRTDxfName
1000
SCALE
1000
AcRTDxfName
1000
SCALE
1000
AcRTDxfName
1000
SCALE
1000
AcRTDxfName
1000
SCALE
1000
AcRTDxfName
1000
SCALE
1000
AcRTDxfName
1000
SCALE
1000
AcRTDxfName
1000
SCALE
1000
AcRTDxfName
1000
SCALE
1000
AcRTDxfName
1000
SCALE
1000
AcRTDxfName
1000
SCALE
1000
AcRTDxfName
1000
SCALE
1000
AcRTDxfName
1000
SCALE
1000
AcRTDxfName
1000
SCALE
1000
AcRTDxfName
1000
SCALE
1000
AcRTDxfName
1000
SCALE
1000
AcRTDxfName
1000
SCALE
1000
AcRTDxfName
1000
SCALE
1000
AcRTDxfName
1000
SCALE
1000
AcRTDxfName
1000
SCALE
1000
AcRTDxfName
1000
SCALE
1000
AcRTDxfName
1000
SCALE
1000
AcRTDxfName
1000
SCALE
1000
AcRTDxfName
1000
SCALE
1000
AcRTDxfName
1000
SCALE
1000
AcRTDxfName
1000
SCALE
1000
AcRTDxfName
1000
SCALE
1000
AcRTDxfName
1000
SCALE
1000
AcRTDxfName
1000
SCALE
1000
AcRTDxfName
1000
SCALE
1000
AcRTDxfName
1000
SCALE
1000
AcRTDxfName
1000
SCALE
1000
AcRTDxfName
1000
SCALE
1000
AcRTDxfName
1000
SCALE
1000
AcRTDxfName
1000
SCALE
1000
AcRTDxfName
1000
SCALE
1000
AcRTDxfName
1000
SCALE
1000
AcRTDxfName
1000
SCALE
1000
AcRTDxfName
1000
SCALE
1000
AcRTDxfName
1000
SCALE
1000
AcRTDxfName
1000
SCALE
1000
AcRTDxfName
1000
SCALE
1000
AcRTDxfName
1000
SCALE
1000
AcRTDxfName
1000
SCALE
1000
AcRTDxfName
1000
SCALE
1000
AcRTDxfName
1000
SCALE
1000
AcRTDxfName
1000
SCALE
1000
AcRTDxfName
1000
SCALE
1000
AcRTDxfName
1000
SCALE
1000
AcRTDxfName
1000
SCALE
1000
AcRTDxfName
1000
SCALE
1000
AcRTDxfName
1000
SCALE
1000
AcRTDxfName
1000
SCALE
1000
AcRTDxfName
1000
SCALE
1000
AcRTDxfName
1000
SCALE
1000
AcRTDxfName
1000
SCALE
1000
AcRTDxfName
1000
SCALE
1000
AcRTDxfName
1000
SCALE
1000
AcRTDxfName
1000
SCALE
1000
AcRTDxfName
1000
SCALE
1000
AcRTDxfName
1000
SCALE
1000
AcRTDxfName
1000
SCALE
1000
AcRTDxfName
1000
SCALE
1000
AcRTDxfName
1000
SCALE
1000
AcRTDxfName
1000
SCALE
1000
AcRTDxfName
1000
SCALE
1000
AcRTDxfName
1000
SCALE
1000
AcRTDxfName
1000
SCALE
1000
AcRTDxfName
1000
SCALE
1000
AcRTDxfName
1000
SCALE
1000
AcRTDxfName
1000
SCALE
1000
AcRTDxfName
1000
SCALE
1000
AcRTDxfName
1000
SCALE
1000
AcRTDxfName
1000
SCALE
1000
AcRTDxfName
1000
SCALE
1000
AcRTDxfName
1000
SCALE
1000
AcRTDxfName
1000
SCALE
1000
AcRTDxfName
1000
SCALE
1000
AcRTDxfName
1000
SCALE
1000
AcRTDxfName
1000
SCALE
1000
AcRTDxfName
1000
SCALE
1000
AcRTDxfName
1000
SCALE
1000
AcRTDxfName
1000
SCALE
1000
AcRTDxfName
1000
SCALE
1000
AcRTDxfName
1000
SCALE
1000
AcRTDxfName
1000
SCALE
1000
AcRTDxfName
1000
SCALE
1000
AcRTDxfName
1000
SCALE
1000
AcRTDxfName
1000
SCALE
1000
AcRTDxfName
1000
SCALE
1000
AcRTDxfName
1000
SCALE
1000
AcRTDxfName
1000
SCALE
1000
AcRTDxfName
1000
SCALE
1000
AcRTDxfName
1000
SCALE
1000
AcRTDxfName
1000
SCALE
1000
AcRTDxfName
1000
SCALE
1000
AcRTDxfName
1000
SCALE
1000
AcRTDxfName
1000
SCALE
1000
AcRTDxfName
1000
SCALE
1000
AcRTDxfName
1000
SCALE
1000
AcRTDxfName
1000
SCALE
1000
AcRTDxfName
1000
SCALE
1000
AcRTDxfName
1000
SCALE
1000
AcRTDxfName
1000
SCALE
1000
AcRTDxfName
1000
SCALE
1000
AcRTDxfName
1000
SCALE
1000
AcRTDxfName
1000
SCALE
1000
AcRTDxfName
1000
SCALE
1000
AcRTDxfName
1000
SCALE
1000
AcRTDxfName
1000
SCALE
1000
AcRTDxfName
1000
SCALE
1000
AcRTDxfName
1000
SCALE
1000
AcRTDxfName
1000
SCALE
1000
AcRTDxfName
1000
SCALE
1000
AcRTDxfName
1000
SCALE
1000
AcRTDxfName
1000
SCALE
1000
AcRTDxfName
1000
SCALE
1000
AcRTDxfName
1000
SCALE
1000
AcRTDxfName
1000
SCALE
1000
AcRTDxfName
1000
SCALE
1000
AcRTDxfName
1000
SCALE
1000
AcRTDxfName
1000
SCALE
1000
AcRTDxfName
1000
SCALE
1000
AcRTDxfName
1000
SCALE
1000
AcRTDxfName
1000
SCALE
1000
AcRTDxfName
1000
SCALE
1000
AcRTDxfName
1000
SCALE
1000
AcRTDxfName
1000
SCALE
1000
AcRTDxfName
1000
SCALE
1000
AcRTDxfName
1000
SCALE
1000
AcRTDxfName
1000
SCALE
1000
AcRTDxfName
1000
SCALE
1000
AcRTDxfName
1000
SCALE
1000
AcRTDxfName
1000
SCALE
1000
AcRTDxfName
1000
SCALE
1000
AcRTDxfName
1000
SCALE
1000
AcRTDxfName
1000
SCALE
1000
AcRTDxfName
1000
SCALE
1000
AcRTDxfName
1000
SCALE
1000
AcRTDxfName
1000
SCALE
1000
AcRTDxfName
1000
SCALE
1000
AcRTDxfName
1000
SCALE
1000
AcRTDxfName
1000
SCALE
1000
AcRTDxfName
1000
SCALE
1000
AcRTDxfName
1000
SCALE
1000
AcRTDxfName
1000
SCALE
1000
AcRTDxfName
1000
SCALE
1000
AcRTDxfName
1000
SCALE
1000
AcRTDxfName
1000
SCALE
1000
AcRTDxfName
1000
SCALE
  0
SCALE
  5
3F89
102
{ACAD_REACTORS
330
3545
102
}
330
3545
100
AcDbScale
 70
     0
300
1:30_XREF
140
1.0
141
30.0
290
     0
1001
ACAD
1000
AcRTDxfName
1000
SCALE
1000
AcRTDxfName
1000
SCALE
1000
AcRTDxfName
1000
SCALE
1000
AcRTDxfName
1000
SCALE
1000
AcRTDxfName
1000
SCALE
1000
AcRTDxfName
1000
SCALE
1000
AcRTDxfName
1000
SCALE
1000
AcRTDxfName
1000
SCALE
1000
AcRTDxfName
1000
SCALE
1000
AcRTDxfName
1000
SCALE
1000
AcRTDxfName
1000
SCALE
1000
AcRTDxfName
1000
SCALE
1000
AcRTDxfName
1000
SCALE
1000
AcRTDxfName
1000
SCALE
1000
AcRTDxfName
1000
SCALE
1000
AcRTDxfName
1000
SCALE
1000
AcRTDxfName
1000
SCALE
1000
AcRTDxfName
1000
SCALE
1000
AcRTDxfName
1000
SCALE
1000
AcRTDxfName
1000
SCALE
1000
AcRTDxfName
1000
SCALE
1000
AcRTDxfName
1000
SCALE
1000
AcRTDxfName
1000
SCALE
1000
AcRTDxfName
1000
SCALE
1000
AcRTDxfName
1000
SCALE
1000
AcRTDxfName
1000
SCALE
1000
AcRTDxfName
1000
SCALE
1000
AcRTDxfName
1000
SCALE
1000
AcRTDxfName
1000
SCALE
1000
AcRTDxfName
1000
SCALE
1000
AcRTDxfName
1000
SCALE
1000
AcRTDxfName
1000
SCALE
1000
AcRTDxfName
1000
SCALE
1000
AcRTDxfName
1000
SCALE
1000
AcRTDxfName
1000
SCALE
1000
AcRTDxfName
1000
SCALE
1000
AcRTDxfName
1000
SCALE
1000
AcRTDxfName
1000
SCALE
1000
AcRTDxfName
1000
SCALE
1000
AcRTDxfName
1000
SCALE
1000
AcRTDxfName
1000
SCALE
1000
AcRTDxfName
1000
SCALE
1000
AcRTDxfName
1000
SCALE
1000
AcRTDxfName
1000
SCALE
1000
AcRTDxfName
1000
SCALE
1000
AcRTDxfName
1000
SCALE
1000
AcRTDxfName
1000
SCALE
1000
AcRTDxfName
1000
SCALE
1000
AcRTDxfName
1000
SCALE
1000
AcRTDxfName
1000
SCALE
1000
AcRTDxfName
1000
SCALE
1000
AcRTDxfName
1000
SCALE
1000
AcRTDxfName
1000
SCALE
1000
AcRTDxfName
1000
SCALE
1000
AcRTDxfName
1000
SCALE
1000
AcRTDxfName
1000
SCALE
1000
AcRTDxfName
1000
SCALE
1000
AcRTDxfName
1000
SCALE
1000
AcRTDxfName
1000
SCALE
1000
AcRTDxfName
1000
SCALE
1000
AcRTDxfName
1000
SCALE
1000
AcRTDxfName
1000
SCALE
1000
AcRTDxfName
1000
SCALE
1000
AcRTDxfName
1000
SCALE
1000
AcRTDxfName
1000
SCALE
1000
AcRTDxfName
1000
SCALE
  0
SCALE
  5
3F8A
102
{ACAD_REACTORS
330
3545
102
}
330
3545
100
AcDbScale
 70
     0
300
3/32" = 1'-0"_XREF
140
0.09375
141
12.0
290
     0
  0
SCALE
  5
3F8B
102
{ACAD_REACTORS
330
3545
102
}
330
3545
100
AcDbScale
 70
     0
300
1/128" = 1'-0"_XREF
140
0.0078125
141
12.0
290
     0
  0
SCALE
  5
3F96
102
{ACAD_REACTORS
330
3545
102
}
330
3545
100
AcDbScale
 70
     0
300
1:40_XREF
140
1.0
141
40.0
290
     0
1001
ACAD
1000
AcRTDxfName
1000
SCALE
1000
AcRTDxfName
1000
SCALE
1000
AcRTDxfName
1000
SCALE
1000
AcRTDxfName
1000
SCALE
1000
AcRTDxfName
1000
SCALE
1000
AcRTDxfName
1000
SCALE
1000
AcRTDxfName
1000
SCALE
1000
AcRTDxfName
1000
SCALE
1000
AcRTDxfName
1000
SCALE
1000
AcRTDxfName
1000
SCALE
1000
AcRTDxfName
1000
SCALE
1000
AcRTDxfName
1000
SCALE
1000
AcRTDxfName
1000
SCALE
1000
AcRTDxfName
1000
SCALE
1000
AcRTDxfName
1000
SCALE
1000
AcRTDxfName
1000
SCALE
1000
AcRTDxfName
1000
SCALE
1000
AcRTDxfName
1000
SCALE
1000
AcRTDxfName
1000
SCALE
1000
AcRTDxfName
1000
SCALE
1000
AcRTDxfName
1000
SCALE
1000
AcRTDxfName
1000
SCALE
1000
AcRTDxfName
1000
SCALE
1000
AcRTDxfName
1000
SCALE
1000
AcRTDxfName
1000
SCALE
1000
AcRTDxfName
1000
SCALE
1000
AcRTDxfName
1000
SCALE
1000
AcRTDxfName
1000
SCALE
1000
AcRTDxfName
1000
SCALE
1000
AcRTDxfName
1000
SCALE
1000
AcRTDxfName
1000
SCALE
1000
AcRTDxfName
1000
SCALE
1000
AcRTDxfName
1000
SCALE
1000
AcRTDxfName
1000
SCALE
1000
AcRTDxfName
1000
SCALE
1000
AcRTDxfName
1000
SCALE
1000
AcRTDxfName
1000
SCALE
1000
AcRTDxfName
1000
SCALE
1000
AcRTDxfName
1000
SCALE
1000
AcRTDxfName
1000
SCALE
1000
AcRTDxfName
1000
SCALE
1000
AcRTDxfName
1000
SCALE
1000
AcRTDxfName
1000
SCALE
1000
AcRTDxfName
1000
SCALE
1000
AcRTDxfName
1000
SCALE
1000
AcRTDxfName
1000
SCALE
1000
AcRTDxfName
1000
SCALE
1000
AcRTDxfName
1000
SCALE
1000
AcRTDxfName
1000
SCALE
1000
AcRTDxfName
1000
SCALE
1000
AcRTDxfName
1000
SCALE
1000
AcRTDxfName
1000
SCALE
1000
AcRTDxfName
1000
SCALE
1000
AcRTDxfName
1000
SCALE
1000
AcRTDxfName
1000
SCALE
1000
AcRTDxfName
1000
SCALE
1000
AcRTDxfName
1000
SCALE
1000
AcRTDxfName
1000
SCALE
1000
AcRTDxfName
1000
SCALE
1000
AcRTDxfName
1000
SCALE
1000
AcRTDxfName
1000
SCALE
1000
AcRTDxfName
1000
SCALE
1000
AcRTDxfName
1000
SCALE
1000
AcRTDxfName
1000
SCALE
1000
AcRTDxfName
1000
SCALE
1000
AcRTDxfName
1000
SCALE
  0
SCALE
  5
3F8C
102
{ACAD_REACTORS
330
3545
102
}
330
3545
100
AcDbScale
 70
     0
300
1:4_XREF
140
1.0
141
4.0
290
     0
1001
ACAD
1000
AcRTDxfName
1000
SCALE
1000
AcRTDxfName
1000
SCALE
1000
AcRTDxfName
1000
SCALE
1000
AcRTDxfName
1000
SCALE
1000
AcRTDxfName
1000
SCALE
1000
AcRTDxfName
1000
SCALE
1000
AcRTDxfName
1000
SCALE
1000
AcRTDxfName
1000
SCALE
1000
AcRTDxfName
1000
SCALE
1000
AcRTDxfName
1000
SCALE
1000
AcRTDxfName
1000
SCALE
1000
AcRTDxfName
1000
SCALE
1000
AcRTDxfName
1000
SCALE
1000
AcRTDxfName
1000
SCALE
1000
AcRTDxfName
1000
SCALE
1000
AcRTDxfName
1000
SCALE
1000
AcRTDxfName
1000
SCALE
1000
AcRTDxfName
1000
SCALE
1000
AcRTDxfName
1000
SCALE
1000
AcRTDxfName
1000
SCALE
1000
AcRTDxfName
1000
SCALE
1000
AcRTDxfName
1000
SCALE
1000
AcRTDxfName
1000
SCALE
1000
AcRTDxfName
1000
SCALE
1000
AcRTDxfName
1000
SCALE
1000
AcRTDxfName
1000
SCALE
1000
AcRTDxfName
1000
SCALE
1000
AcRTDxfName
1000
SCALE
1000
AcRTDxfName
1000
SCALE
1000
AcRTDxfName
1000
SCALE
1000
AcRTDxfName
1000
SCALE
1000
AcRTDxfName
1000
SCALE
1000
AcRTDxfName
1000
SCALE
1000
AcRTDxfName
1000
SCALE
1000
AcRTDxfName
1000
SCALE
1000
AcRTDxfName
1000
SCALE
1000
AcRTDxfName
1000
SCALE
1000
AcRTDxfName
1000
SCALE
1000
AcRTDxfName
1000
SCALE
1000
AcRTDxfName
1000
SCALE
1000
AcRTDxfName
1000
SCALE
1000
AcRTDxfName
1000
SCALE
1000
AcRTDxfName
1000
SCALE
1000
AcRTDxfName
1000
SCALE
1000
AcRTDxfName
1000
SCALE
1000
AcRTDxfName
1000
SCALE
1000
AcRTDxfName
1000
SCALE
1000
AcRTDxfName
1000
SCALE
1000
AcRTDxfName
1000
SCALE
1000
AcRTDxfName
1000
SCALE
1000
AcRTDxfName
1000
SCALE
1000
AcRTDxfName
1000
SCALE
1000
AcRTDxfName
1000
SCALE
1000
AcRTDxfName
1000
SCALE
1000
AcRTDxfName
1000
SCALE
1000
AcRTDxfName
1000
SCALE
1000
AcRTDxfName
1000
SCALE
1000
AcRTDxfName
1000
SCALE
1000
AcRTDxfName
1000
SCALE
1000
AcRTDxfName
1000
SCALE
1000
AcRTDxfName
1000
SCALE
1000
AcRTDxfName
1000
SCALE
1000
AcRTDxfName
1000
SCALE
1000
AcRTDxfName
1000
SCALE
1000
AcRTDxfName
1000
SCALE
1000
AcRTDxfName
1000
SCALE
  0
SCALE
  5
3F8F
102
{ACAD_REACTORS
330
3545
102
}
330
3545
100
AcDbScale
 70
     0
300
6" = 1'-0"_XREF
140
6.0
141
12.0
290
     0
  0
SCALE
  5
3F90
102
{ACAD_REACTORS
330
3545
102
}
330
3545
100
AcDbScale
 70
     0
300
1/4" = 1'-0"_XREF
140
0.25
141
12.0
290
     0
  0
SCALE
  5
3F91
102
{ACAD_REACTORS
330
3545
102
}
330
3545
100
AcDbScale
 70
     0
300
1/500_XREF
140
1.0
141
0.005
290
     0
1001
ACAD
1000
AcRTDxfName
1000
SCALE
1000
AcRTDxfName
1000
SCALE
1000
AcRTDxfName
1000
SCALE
1000
AcRTDxfName
1000
SCALE
1000
AcRTDxfName
1000
SCALE
1000
AcRTDxfName
1000
SCALE
1000
AcRTDxfName
1000
SCALE
1000
AcRTDxfName
1000
SCALE
1000
AcRTDxfName
1000
SCALE
1000
AcRTDxfName
1000
SCALE
1000
AcRTDxfName
1000
SCALE
1000
AcRTDxfName
1000
SCALE
1000
AcRTDxfName
1000
SCALE
1000
AcRTDxfName
1000
SCALE
1000
AcRTDxfName
1000
SCALE
1000
AcRTDxfName
1000
SCALE
1000
AcRTDxfName
1000
SCALE
1000
AcRTDxfName
1000
SCALE
1000
AcRTDxfName
1000
SCALE
1000
AcRTDxfName
1000
SCALE
1000
AcRTDxfName
1000
SCALE
1000
AcRTDxfName
1000
SCALE
1000
AcRTDxfName
1000
SCALE
1000
AcRTDxfName
1000
SCALE
1000
AcRTDxfName
1000
SCALE
1000
AcRTDxfName
1000
SCALE
1000
AcRTDxfName
1000
SCALE
1000
AcRTDxfName
1000
SCALE
1000
AcRTDxfName
1000
SCALE
1000
AcRTDxfName
1000
SCALE
1000
AcRTDxfName
1000
SCALE
1000
AcRTDxfName
1000
SCALE
1000
AcRTDxfName
1000
SCALE
1000
AcRTDxfName
1000
SCALE
1000
AcRTDxfName
1000
SCALE
1000
AcRTDxfName
1000
SCALE
1000
AcRTDxfName
1000
SCALE
1000
AcRTDxfName
1000
SCALE
1000
AcRTDxfName
1000
SCALE
1000
AcRTDxfName
1000
SCALE
1000
AcRTDxfName
1000
SCALE
1000
AcRTDxfName
1000
SCALE
1000
AcRTDxfName
1000
SCALE
1000
AcRTDxfName
1000
SCALE
1000
AcRTDxfName
1000
SCALE
1000
AcRTDxfName
1000
SCALE
1000
AcRTDxfName
1000
SCALE
1000
AcRTDxfName
1000
SCALE
1000
AcRTDxfName
1000
SCALE
1000
AcRTDxfName
1000
SCALE
1000
AcRTDxfName
1000
SCALE
1000
AcRTDxfName
1000
SCALE
1000
AcRTDxfName
1000
SCALE
1000
AcRTDxfName
1000
SCALE
1000
AcRTDxfName
1000
SCALE
1000
AcRTDxfName
1000
SCALE
1000
AcRTDxfName
1000
SCALE
1000
AcRTDxfName
1000
SCALE
1000
AcRTDxfName
1000
SCALE
1000
AcRTDxfName
1000
SCALE
1000
AcRTDxfName
1000
SCALE
1000
AcRTDxfName
1000
SCALE
1000
AcRTDxfName
1000
SCALE
1000
AcRTDxfName
1000
SCALE
1000
AcRTDxfName
1000
SCALE
1000
AcRTDxfName
1000
SCALE
1000
AcRTDxfName
1000
SCALE
1000
AcRTDxfName
1000
SCALE
1000
AcRTDxfName
1000
SCALE
1000
AcRTDxfName
1000
SCALE
1000
AcRTDxfName
1000
SCALE
1000
AcRTDxfName
1000
SCALE
1000
AcRTDxfName
1000
SCALE
1000
AcRTDxfName
1000
SCALE
1000
AcRTDxfName
1000
SCALE
1000
AcRTDxfName
1000
SCALE
1000
AcRTDxfName
1000
SCALE
1000
AcRTDxfName
1000
SCALE
1000
AcRTDxfName
1000
SCALE
1000
AcRTDxfName
1000
SCALE
1000
AcRTDxfName
1000
SCALE
1000
AcRTDxfName
1000
SCALE
1000
AcRTDxfName
1000
SCALE
1000
AcRTDxfName
1000
SCALE
1000
AcRTDxfName
1000
SCALE
1000
AcRTDxfName
1000
SCALE
1000
AcRTDxfName
1000
SCALE
1000
AcRTDxfName
1000
SCALE
1000
AcRTDxfName
1000
SCALE
1000
AcRTDxfName
1000
SCALE
1000
AcRTDxfName
1000
SCALE
1000
AcRTDxfName
1000
SCALE
1000
AcRTDxfName
1000
SCALE
1000
AcRTDxfName
1000
SCALE
1000
AcRTDxfName
1000
SCALE
1000
AcRTDxfName
1000
SCALE
1000
AcRTDxfName
1000
SCALE
1000
AcRTDxfName
1000
SCALE
1000
AcRTDxfName
1000
SCALE
1000
AcRTDxfName
1000
SCALE
1000
AcRTDxfName
1000
SCALE
1000
AcRTDxfName
1000
SCALE
1000
AcRTDxfName
1000
SCALE
1000
AcRTDxfName
1000
SCALE
1000
AcRTDxfName
1000
SCALE
1000
AcRTDxfName
1000
SCALE
1000
AcRTDxfName
1000
SCALE
1000
AcRTDxfName
1000
SCALE
1000
AcRTDxfName
1000
SCALE
1000
AcRTDxfName
1000
SCALE
1000
AcRTDxfName
1000
SCALE
1000
AcRTDxfName
1000
SCALE
1000
AcRTDxfName
1000
SCALE
1000
AcRTDxfName
1000
SCALE
1000
AcRTDxfName
1000
SCALE
1000
AcRTDxfName
1000
SCALE
1000
AcRTDxfName
1000
SCALE
1000
AcRTDxfName
1000
SCALE
1000
AcRTDxfName
1000
SCALE
1000
AcRTDxfName
1000
SCALE
1000
AcRTDxfName
1000
SCALE
1000
AcRTDxfName
1000
SCALE
1000
AcRTDxfName
1000
SCALE
1000
AcRTDxfName
1000
SCALE
1000
AcRTDxfName
1000
SCALE
1000
AcRTDxfName
1000
SCALE
1000
AcRTDxfName
1000
SCALE
1000
AcRTDxfName
1000
SCALE
1000
AcRTDxfName
1000
SCALE
1000
AcRTDxfName
1000
SCALE
1000
AcRTDxfName
1000
SCALE
1000
AcRTDxfName
1000
SCALE
1000
AcRTDxfName
1000
SCALE
1000
AcRTDxfName
1000
SCALE
1000
AcRTDxfName
1000
SCALE
1000
AcRTDxfName
1000
SCALE
1000
AcRTDxfName
1000
SCALE
1000
AcRTDxfName
1000
SCALE
1000
AcRTDxfName
1000
SCALE
1000
AcRTDxfName
1000
SCALE
1000
AcRTDxfName
1000
SCALE
1000
AcRTDxfName
1000
SCALE
1000
AcRTDxfName
1000
SCALE
1000
AcRTDxfName
1000
SCALE
1000
AcRTDxfName
1000
SCALE
1000
AcRTDxfName
1000
SCALE
1000
AcRTDxfName
1000
SCALE
1000
AcRTDxfName
1000
SCALE
1000
AcRTDxfName
1000
SCALE
1000
AcRTDxfName
1000
SCALE
1000
AcRTDxfName
1000
SCALE
1000
AcRTDxfName
1000
SCALE
  0
SCALE
  5
3F92
102
{ACAD_REACTORS
330
3545
102
}
330
3545
100
AcDbScale
 70
     0
300
3/16" = 1'-0"_XREF
140
0.1875
141
12.0
290
     0
  0
SCALE
  5
3F93
102
{ACAD_REACTORS
330
3545
102
}
330
3545
100
AcDbScale
 70
     0
300
3/4" = 1'-0"_XREF
140
0.75
141
12.0
290
     0
  0
SCALE
  5
3F9D
102
{ACAD_REACTORS
330
3545
102
}
330
3545
100
AcDbScale
 70
     0
300
3" = 1'-0"_XREF
140
3.0
141
12.0
290
     0
  0
SCALE
  5
3F94
102
{ACAD_REACTORS
330
3545
102
}
330
3545
100
AcDbScale
 70
     0
300
1:2_XREF
140
1.0
141
2.0
290
     0
1001
ACAD
1000
AcRTDxfName
1000
SCALE
1000
AcRTDxfName
1000
SCALE
1000
AcRTDxfName
1000
SCALE
1000
AcRTDxfName
1000
SCALE
1000
AcRTDxfName
1000
SCALE
1000
AcRTDxfName
1000
SCALE
1000
AcRTDxfName
1000
SCALE
1000
AcRTDxfName
1000
SCALE
1000
AcRTDxfName
1000
SCALE
1000
AcRTDxfName
1000
SCALE
1000
AcRTDxfName
1000
SCALE
1000
AcRTDxfName
1000
SCALE
1000
AcRTDxfName
1000
SCALE
1000
AcRTDxfName
1000
SCALE
1000
AcRTDxfName
1000
SCALE
1000
AcRTDxfName
1000
SCALE
1000
AcRTDxfName
1000
SCALE
1000
AcRTDxfName
1000
SCALE
1000
AcRTDxfName
1000
SCALE
1000
AcRTDxfName
1000
SCALE
1000
AcRTDxfName
1000
SCALE
1000
AcRTDxfName
1000
SCALE
1000
AcRTDxfName
1000
SCALE
1000
AcRTDxfName
1000
SCALE
1000
AcRTDxfName
1000
SCALE
1000
AcRTDxfName
1000
SCALE
1000
AcRTDxfName
1000
SCALE
1000
AcRTDxfName
1000
SCALE
1000
AcRTDxfName
1000
SCALE
1000
AcRTDxfName
1000
SCALE
1000
AcRTDxfName
1000
SCALE
1000
AcRTDxfName
1000
SCALE
1000
AcRTDxfName
1000
SCALE
1000
AcRTDxfName
1000
SCALE
1000
AcRTDxfName
1000
SCALE
1000
AcRTDxfName
1000
SCALE
1000
AcRTDxfName
1000
SCALE
1000
AcRTDxfName
1000
SCALE
1000
AcRTDxfName
1000
SCALE
1000
AcRTDxfName
1000
SCALE
1000
AcRTDxfName
1000
SCALE
1000
AcRTDxfName
1000
SCALE
1000
AcRTDxfName
1000
SCALE
1000
AcRTDxfName
1000
SCALE
1000
AcRTDxfName
1000
SCALE
1000
AcRTDxfName
1000
SCALE
1000
AcRTDxfName
1000
SCALE
1000
AcRTDxfName
1000
SCALE
1000
AcRTDxfName
1000
SCALE
1000
AcRTDxfName
1000
SCALE
1000
AcRTDxfName
1000
SCALE
1000
AcRTDxfName
1000
SCALE
1000
AcRTDxfName
1000
SCALE
1000
AcRTDxfName
1000
SCALE
1000
AcRTDxfName
1000
SCALE
1000
AcRTDxfName
1000
SCALE
1000
AcRTDxfName
1000
SCALE
1000
AcRTDxfName
1000
SCALE
1000
AcRTDxfName
1000
SCALE
1000
AcRTDxfName
1000
SCALE
1000
AcRTDxfName
1000
SCALE
1000
AcRTDxfName
1000
SCALE
1000
AcRTDxfName
1000
SCALE
1000
AcRTDxfName
1000
SCALE
1000
AcRTDxfName
1000
SCALE
1000
AcRTDxfName
1000
SCALE
  0
SCALE
  5
3F85
102
{ACAD_REACTORS
330
3545
102
}
330
3545
100
AcDbScale
 70
     0
300
100:1_XREF
140
100.0
141
1.0
290
     0
1001
ACAD
1000
AcRTDxfName
1000
SCALE
1000
AcRTDxfName
1000
SCALE
1000
AcRTDxfName
1000
SCALE
1000
AcRTDxfName
1000
SCALE
1000
AcRTDxfName
1000
SCALE
1000
AcRTDxfName
1000
SCALE
1000
AcRTDxfName
1000
SCALE
1000
AcRTDxfName
1000
SCALE
1000
AcRTDxfName
1000
SCALE
1000
AcRTDxfName
1000
SCALE
1000
AcRTDxfName
1000
SCALE
1000
AcRTDxfName
1000
SCALE
1000
AcRTDxfName
1000
SCALE
1000
AcRTDxfName
1000
SCALE
1000
AcRTDxfName
1000
SCALE
1000
AcRTDxfName
1000
SCALE
1000
AcRTDxfName
1000
SCALE
1000
AcRTDxfName
1000
SCALE
1000
AcRTDxfName
1000
SCALE
1000
AcRTDxfName
1000
SCALE
1000
AcRTDxfName
1000
SCALE
1000
AcRTDxfName
1000
SCALE
1000
AcRTDxfName
1000
SCALE
1000
AcRTDxfName
1000
SCALE
1000
AcRTDxfName
1000
SCALE
1000
AcRTDxfName
1000
SCALE
1000
AcRTDxfName
1000
SCALE
1000
AcRTDxfName
1000
SCALE
1000
AcRTDxfName
1000
SCALE
1000
AcRTDxfName
1000
SCALE
1000
AcRTDxfName
1000
SCALE
1000
AcRTDxfName
1000
SCALE
1000
AcRTDxfName
1000
SCALE
1000
AcRTDxfName
1000
SCALE
1000
AcRTDxfName
1000
SCALE
1000
AcRTDxfName
1000
SCALE
1000
AcRTDxfName
1000
SCALE
1000
AcRTDxfName
1000
SCALE
1000
AcRTDxfName
1000
SCALE
1000
AcRTDxfName
1000
SCALE
1000
AcRTDxfName
1000
SCALE
1000
AcRTDxfName
1000
SCALE
1000
AcRTDxfName
1000
SCALE
1000
AcRTDxfName
1000
SCALE
1000
AcRTDxfName
1000
SCALE
1000
AcRTDxfName
1000
SCALE
1000
AcRTDxfName
1000
SCALE
1000
AcRTDxfName
1000
SCALE
1000
AcRTDxfName
1000
SCALE
1000
AcRTDxfName
1000
SCALE
1000
AcRTDxfName
1000
SCALE
1000
AcRTDxfName
1000
SCALE
1000
AcRTDxfName
1000
SCALE
1000
AcRTDxfName
1000
SCALE
1000
AcRTDxfName
1000
SCALE
1000
AcRTDxfName
1000
SCALE
1000
AcRTDxfName
1000
SCALE
1000
AcRTDxfName
1000
SCALE
1000
AcRTDxfName
1000
SCALE
1000
AcRTDxfName
1000
SCALE
1000
AcRTDxfName
1000
SCALE
1000
AcRTDxfName
1000
SCALE
1000
AcRTDxfName
1000
SCALE
1000
AcRTDxfName
1000
SCALE
1000
AcRTDxfName
1000
SCALE
1000
AcRTDxfName
1000
SCALE
  0
SCALE
  5
3F97
102
{ACAD_REACTORS
330
3545
102
}
330
3545
100
AcDbScale
 70
     0
300
1/8" = 1'-0"_XREF
140
0.125
141
12.0
290
     0
  0
SCALE
  5
3F98
102
{ACAD_REACTORS
330
3545
102
}
330
3545
100
AcDbScale
 70
     0
300
1'-0" = 1'-0"_XREF
140
12.0
141
12.0
290
     0
  0
SCALE
  5
3F99
102
{ACAD_REACTORS
330
3545
102
}
330
3545
100
AcDbScale
 70
     0
300
1/64" = 1'-0"_XREF
140
0.015625
141
12.0
290
     0
  0
SCALE
  5
3F9A
102
{ACAD_REACTORS
330
3545
102
}
330
3545
100
AcDbScale
 70
     0
300
1:10_XREF
140
1.0
141
10.0
290
     0
1001
ACAD
1000
AcRTDxfName
1000
SCALE
1000
AcRTDxfName
1000
SCALE
1000
AcRTDxfName
1000
SCALE
1000
AcRTDxfName
1000
SCALE
1000
AcRTDxfName
1000
SCALE
1000
AcRTDxfName
1000
SCALE
1000
AcRTDxfName
1000
SCALE
1000
AcRTDxfName
1000
SCALE
1000
AcRTDxfName
1000
SCALE
1000
AcRTDxfName
1000
SCALE
1000
AcRTDxfName
1000
SCALE
1000
AcRTDxfName
1000
SCALE
1000
AcRTDxfName
1000
SCALE
1000
AcRTDxfName
1000
SCALE
1000
AcRTDxfName
1000
SCALE
1000
AcRTDxfName
1000
SCALE
1000
AcRTDxfName
1000
SCALE
1000
AcRTDxfName
1000
SCALE
1000
AcRTDxfName
1000
SCALE
1000
AcRTDxfName
1000
SCALE
1000
AcRTDxfName
1000
SCALE
1000
AcRTDxfName
1000
SCALE
1000
AcRTDxfName
1000
SCALE
1000
AcRTDxfName
1000
SCALE
1000
AcRTDxfName
1000
SCALE
1000
AcRTDxfName
1000
SCALE
1000
AcRTDxfName
1000
SCALE
1000
AcRTDxfName
1000
SCALE
1000
AcRTDxfName
1000
SCALE
1000
AcRTDxfName
1000
SCALE
1000
AcRTDxfName
1000
SCALE
1000
AcRTDxfName
1000
SCALE
1000
AcRTDxfName
1000
SCALE
1000
AcRTDxfName
1000
SCALE
1000
AcRTDxfName
1000
SCALE
1000
AcRTDxfName
1000
SCALE
1000
AcRTDxfName
1000
SCALE
1000
AcRTDxfName
1000
SCALE
1000
AcRTDxfName
1000
SCALE
1000
AcRTDxfName
1000
SCALE
1000
AcRTDxfName
1000
SCALE
1000
AcRTDxfName
1000
SCALE
1000
AcRTDxfName
1000
SCALE
1000
AcRTDxfName
1000
SCALE
1000
AcRTDxfName
1000
SCALE
1000
AcRTDxfName
1000
SCALE
1000
AcRTDxfName
1000
SCALE
1000
AcRTDxfName
1000
SCALE
1000
AcRTDxfName
1000
SCALE
1000
AcRTDxfName
1000
SCALE
1000
AcRTDxfName
1000
SCALE
1000
AcRTDxfName
1000
SCALE
1000
AcRTDxfName
1000
SCALE
1000
AcRTDxfName
1000
SCALE
1000
AcRTDxfName
1000
SCALE
1000
AcRTDxfName
1000
SCALE
1000
AcRTDxfName
1000
SCALE
1000
AcRTDxfName
1000
SCALE
1000
AcRTDxfName
1000
SCALE
1000
AcRTDxfName
1000
SCALE
1000
AcRTDxfName
1000
SCALE
1000
AcRTDxfName
1000
SCALE
1000
AcRTDxfName
1000
SCALE
1000
AcRTDxfName
1000
SCALE
1000
AcRTDxfName
1000
SCALE
1000
AcRTDxfName
1000
SCALE
  0
SCALE
  5
3F9B
102
{ACAD_REACTORS
330
3545
102
}
330
3545
100
AcDbScale
 70
     0
300
1-1/2" = 1'-0"_XREF
140
1.5
141
12.0
290
     0
  0
SCALE
  5
3F8D
102
{ACAD_REACTORS
330
3545
102
}
330
3545
100
AcDbScale
 70
     0
300
1:1000_XREF
140
1.0
141
1.0
290
     0
  0
SCALE
  5
3F9E
102
{ACAD_REACTORS
330
3545
102
}
330
3545
100
AcDbScale
 70
     0
300
1/32" = 1'-0"_XREF
140
0.03125
141
12.0
290
     0
  0
SCALE
  5
3F9F
102
{ACAD_REACTORS
330
3545
102
}
330
3545
100
AcDbScale
 70
     0
300
1/16" = 1'-0"_XREF
140
0.0625
141
12.0
290
     0
  0
SCALE
  5
3FA0
102
{ACAD_REACTORS
330
3545
102
}
330
3545
100
AcDbScale
 70
     0
300
10:1_XREF
140
10.0
141
1.0
290
     0
1001
ACAD
1000
AcRTDxfName
1000
SCALE
1000
AcRTDxfName
1000
SCALE
1000
AcRTDxfName
1000
SCALE
1000
AcRTDxfName
1000
SCALE
1000
AcRTDxfName
1000
SCALE
1000
AcRTDxfName
1000
SCALE
1000
AcRTDxfName
1000
SCALE
1000
AcRTDxfName
1000
SCALE
1000
AcRTDxfName
1000
SCALE
1000
AcRTDxfName
1000
SCALE
1000
AcRTDxfName
1000
SCALE
1000
AcRTDxfName
1000
SCALE
1000
AcRTDxfName
1000
SCALE
1000
AcRTDxfName
1000
SCALE
1000
AcRTDxfName
1000
SCALE
1000
AcRTDxfName
1000
SCALE
1000
AcRTDxfName
1000
SCALE
1000
AcRTDxfName
1000
SCALE
1000
AcRTDxfName
1000
SCALE
1000
AcRTDxfName
1000
SCALE
1000
AcRTDxfName
1000
SCALE
1000
AcRTDxfName
1000
SCALE
1000
AcRTDxfName
1000
SCALE
1000
AcRTDxfName
1000
SCALE
1000
AcRTDxfName
1000
SCALE
1000
AcRTDxfName
1000
SCALE
1000
AcRTDxfName
1000
SCALE
1000
AcRTDxfName
1000
SCALE
1000
AcRTDxfName
1000
SCALE
1000
AcRTDxfName
1000
SCALE
1000
AcRTDxfName
1000
SCALE
1000
AcRTDxfName
1000
SCALE
1000
AcRTDxfName
1000
SCALE
1000
AcRTDxfName
1000
SCALE
1000
AcRTDxfName
1000
SCALE
1000
AcRTDxfName
1000
SCALE
1000
AcRTDxfName
1000
SCALE
1000
AcRTDxfName
1000
SCALE
1000
AcRTDxfName
1000
SCALE
1000
AcRTDxfName
1000
SCALE
1000
AcRTDxfName
1000
SCALE
1000
AcRTDxfName
1000
SCALE
1000
AcRTDxfName
1000
SCALE
1000
AcRTDxfName
1000
SCALE
1000
AcRTDxfName
1000
SCALE
1000
AcRTDxfName
1000
SCALE
1000
AcRTDxfName
1000
SCALE
1000
AcRTDxfName
1000
SCALE
1000
AcRTDxfName
1000
SCALE
1000
AcRTDxfName
1000
SCALE
1000
AcRTDxfName
1000
SCALE
1000
AcRTDxfName
1000
SCALE
1000
AcRTDxfName
1000
SCALE
1000
AcRTDxfName
1000
SCALE
1000
AcRTDxfName
1000
SCALE
1000
AcRTDxfName
1000
SCALE
1000
AcRTDxfName
1000
SCALE
1000
AcRTDxfName
1000
SCALE
1000
AcRTDxfName
1000
SCALE
1000
AcRTDxfName
1000
SCALE
1000
AcRTDxfName
1000
SCALE
1000
AcRTDxfName
1000
SCALE
1000
AcRTDxfName
1000
SCALE
1000
AcRTDxfName
1000
SCALE
1000
AcRTDxfName
1000
SCALE
1000
AcRTDxfName
1000
SCALE
  0
SCALE
  5
3F86
102
{ACAD_REACTORS
330
3545
102
}
330
3545
100
AcDbScale
 70
     0
300
1:8_XREF
140
1.0
141
8.0
290
     0
1001
ACAD
1000
AcRTDxfName
1000
SCALE
1000
AcRTDxfName
1000
SCALE
1000
AcRTDxfName
1000
SCALE
1000
AcRTDxfName
1000
SCALE
1000
AcRTDxfName
1000
SCALE
1000
AcRTDxfName
1000
SCALE
1000
AcRTDxfName
1000
SCALE
1000
AcRTDxfName
1000
SCALE
1000
AcRTDxfName
1000
SCALE
1000
AcRTDxfName
1000
SCALE
1000
AcRTDxfName
1000
SCALE
1000
AcRTDxfName
1000
SCALE
1000
AcRTDxfName
1000
SCALE
1000
AcRTDxfName
1000
SCALE
1000
AcRTDxfName
1000
SCALE
1000
AcRTDxfName
1000
SCALE
1000
AcRTDxfName
1000
SCALE
1000
AcRTDxfName
1000
SCALE
1000
AcRTDxfName
1000
SCALE
1000
AcRTDxfName
1000
SCALE
1000
AcRTDxfName
1000
SCALE
1000
AcRTDxfName
1000
SCALE
1000
AcRTDxfName
1000
SCALE
1000
AcRTDxfName
1000
SCALE
1000
AcRTDxfName
1000
SCALE
1000
AcRTDxfName
1000
SCALE
1000
AcRTDxfName
1000
SCALE
1000
AcRTDxfName
1000
SCALE
1000
AcRTDxfName
1000
SCALE
1000
AcRTDxfName
1000
SCALE
1000
AcRTDxfName
1000
SCALE
1000
AcRTDxfName
1000
SCALE
1000
AcRTDxfName
1000
SCALE
1000
AcRTDxfName
1000
SCALE
1000
AcRTDxfName
1000
SCALE
1000
AcRTDxfName
1000
SCALE
1000
AcRTDxfName
1000
SCALE
1000
AcRTDxfName
1000
SCALE
1000
AcRTDxfName
1000
SCALE
1000
AcRTDxfName
1000
SCALE
1000
AcRTDxfName
1000
SCALE
1000
AcRTDxfName
1000
SCALE
1000
AcRTDxfName
1000
SCALE
1000
AcRTDxfName
1000
SCALE
1000
AcRTDxfName
1000
SCALE
1000
AcRTDxfName
1000
SCALE
1000
AcRTDxfName
1000
SCALE
1000
AcRTDxfName
1000
SCALE
1000
AcRTDxfName
1000
SCALE
1000
AcRTDxfName
1000
SCALE
1000
AcRTDxfName
1000
SCALE
1000
AcRTDxfName
1000
SCALE
1000
AcRTDxfName
1000
SCALE
1000
AcRTDxfName
1000
SCALE
1000
AcRTDxfName
1000
SCALE
1000
AcRTDxfName
1000
SCALE
1000
AcRTDxfName
1000
SCALE
1000
AcRTDxfName
1000
SCALE
1000
AcRTDxfName
1000
SCALE
1000
AcRTDxfName
1000
SCALE
1000
AcRTDxfName
1000
SCALE
1000
AcRTDxfName
1000
SCALE
1000
AcRTDxfName
1000
SCALE
1000
AcRTDxfName
1000
SCALE
1000
AcRTDxfName
1000
SCALE
1000
AcRTDxfName
1000
SCALE
  0
SCALE
  5
3FA1
102
{ACAD_REACTORS
330
3545
102
}
330
3545
100
AcDbScale
 70
     0
300
1:5_XREF
140
1.0
141
5.0
290
     0
1001
ACAD
1000
AcRTDxfName
1000
SCALE
1000
AcRTDxfName
1000
SCALE
1000
AcRTDxfName
1000
SCALE
1000
AcRTDxfName
1000
SCALE
1000
AcRTDxfName
1000
SCALE
1000
AcRTDxfName
1000
SCALE
1000
AcRTDxfName
1000
SCALE
1000
AcRTDxfName
1000
SCALE
1000
AcRTDxfName
1000
SCALE
1000
AcRTDxfName
1000
SCALE
1000
AcRTDxfName
1000
SCALE
1000
AcRTDxfName
1000
SCALE
1000
AcRTDxfName
1000
SCALE
1000
AcRTDxfName
1000
SCALE
1000
AcRTDxfName
1000
SCALE
1000
AcRTDxfName
1000
SCALE
1000
AcRTDxfName
1000
SCALE
1000
AcRTDxfName
1000
SCALE
1000
AcRTDxfName
1000
SCALE
1000
AcRTDxfName
1000
SCALE
1000
AcRTDxfName
1000
SCALE
1000
AcRTDxfName
1000
SCALE
1000
AcRTDxfName
1000
SCALE
1000
AcRTDxfName
1000
SCALE
1000
AcRTDxfName
1000
SCALE
1000
AcRTDxfName
1000
SCALE
1000
AcRTDxfName
1000
SCALE
1000
AcRTDxfName
1000
SCALE
1000
AcRTDxfName
1000
SCALE
1000
AcRTDxfName
1000
SCALE
1000
AcRTDxfName
1000
SCALE
1000
AcRTDxfName
1000
SCALE
1000
AcRTDxfName
1000
SCALE
1000
AcRTDxfName
1000
SCALE
1000
AcRTDxfName
1000
SCALE
1000
AcRTDxfName
1000
SCALE
1000
AcRTDxfName
1000
SCALE
1000
AcRTDxfName
1000
SCALE
1000
AcRTDxfName
1000
SCALE
1000
AcRTDxfName
1000
SCALE
1000
AcRTDxfName
1000
SCALE
1000
AcRTDxfName
1000
SCALE
1000
AcRTDxfName
1000
SCALE
1000
AcRTDxfName
1000
SCALE
1000
AcRTDxfName
1000
SCALE
1000
AcRTDxfName
1000
SCALE
1000
AcRTDxfName
1000
SCALE
1000
AcRTDxfName
1000
SCALE
1000
AcRTDxfName
1000
SCALE
1000
AcRTDxfName
1000
SCALE
1000
AcRTDxfName
1000
SCALE
1000
AcRTDxfName
1000
SCALE
1000
AcRTDxfName
1000
SCALE
1000
AcRTDxfName
1000
SCALE
1000
AcRTDxfName
1000
SCALE
1000
AcRTDxfName
1000
SCALE
1000
AcRTDxfName
1000
SCALE
1000
AcRTDxfName
1000
SCALE
1000
AcRTDxfName
1000
SCALE
1000
AcRTDxfName
1000
SCALE
1000
AcRTDxfName
1000
SCALE
1000
AcRTDxfName
1000
SCALE
1000
AcRTDxfName
1000
SCALE
1000
AcRTDxfName
1000
SCALE
1000
AcRTDxfName
1000
SCALE
1000
AcRTDxfName
1000
SCALE
  0
SCALE
  5
3546
102
{ACAD_REACTORS
330
3545
102
}
330
3545
100
AcDbScale
 70
     0
300
1:1
140
1.0
141
1.0
290
     1
  0
SCALE
  5
3547
102
{ACAD_REACTORS
330
3545
102
}
330
3545
100
AcDbScale
 70
     0
300
1:2
140
1.0
141
2.0
290
     0
  0
SCALE
  5
3548
102
{ACAD_REACTORS
330
3545
102
}
330
3545
100
AcDbScale
 70
     0
300
1:4
140
1.0
141
4.0
290
     0
  0
SCALE
  5
3549
102
{ACAD_REACTORS
330
3545
102
}
330
3545
100
AcDbScale
 70
     0
300
1:5
140
1.0
141
5.0
290
     0
  0
SCALE
  5
354A
102
{ACAD_REACTORS
330
3545
102
}
330
3545
100
AcDbScale
 70
     0
300
1:8
140
1.0
141
8.0
290
     0
  0
SCALE
  5
354B
102
{ACAD_REACTORS
330
3545
102
}
330
3545
100
AcDbScale
 70
     0
300
1:10
140
1.0
141
10.0
290
     0
  0
SCALE
  5
354C
102
{ACAD_REACTORS
330
3545
102
}
330
3545
100
AcDbScale
 70
     0
300
1:16
140
1.0
141
16.0
290
     0
  0
SCALE
  5
354D
102
{ACAD_REACTORS
330
3545
102
}
330
3545
100
AcDbScale
 70
     0
300
1:20
140
1.0
141
20.0
290
     0
  0
SCALE
  5
354E
102
{ACAD_REACTORS
330
3545
102
}
330
3545
100
AcDbScale
 70
     0
300
1:30
140
1.0
141
30.0
290
     0
  0
SCALE
  5
354F
102
{ACAD_REACTORS
330
3545
102
}
330
3545
100
AcDbScale
 70
     0
300
1:40
140
1.0
141
40.0
290
     0
  0
SCALE
  5
3550
102
{ACAD_REACTORS
330
3545
102
}
330
3545
100
AcDbScale
 70
     0
300
1:50
140
1.0
141
50.0
290
     0
  0
SCALE
  5
3551
102
{ACAD_REACTORS
330
3545
102
}
330
3545
100
AcDbScale
 70
     0
300
1:100
140
1.0
141
100.0
290
     0
  0
SCALE
  5
3552
102
{ACAD_REACTORS
330
3545
102
}
330
3545
100
AcDbScale
 70
     0
300
2:1
140
2.0
141
1.0
290
     0
  0
SCALE
  5
3553
102
{ACAD_REACTORS
330
3545
102
}
330
3545
100
AcDbScale
 70
     0
300
4:1
140
4.0
141
1.0
290
     0
  0
SCALE
  5
3554
102
{ACAD_REACTORS
330
3545
102
}
330
3545
100
AcDbScale
 70
     0
300
8:1
140
8.0
141
1.0
290
     0
  0
SCALE
  5
3555
102
{ACAD_REACTORS
330
3545
102
}
330
3545
100
AcDbScale
 70
     0
300
10:1
140
10.0
141
1.0
290
     0
  0
SCALE
  5
3556
102
{ACAD_REACTORS
330
3545
102
}
330
3545
100
AcDbScale
 70
     0
300
100:1
140
100.0
141
1.0
290
     0
  0
SCALE
  5
3557
102
{ACAD_REACTORS
330
3545
102
}
330
3545
100
AcDbScale
 70
     0
300
1/128" = 1'-0"
140
0.0078125
141
12.0
290
     0
  0
SCALE
  5
3558
102
{ACAD_REACTORS
330
3545
102
}
330
3545
100
AcDbScale
 70
     0
300
1/64" = 1'-0"
140
0.015625
141
12.0
290
     0
  0
SCALE
  5
3559
102
{ACAD_REACTORS
330
3545
102
}
330
3545
100
AcDbScale
 70
     0
300
1/32" = 1'-0"
140
0.03125
141
12.0
290
     0
  0
SCALE
  5
355A
102
{ACAD_REACTORS
330
3545
102
}
330
3545
100
AcDbScale
 70
     0
300
1/16" = 1'-0"
140
0.0625
141
12.0
290
     0
  0
SCALE
  5
355B
102
{ACAD_REACTORS
330
3545
102
}
330
3545
100
AcDbScale
 70
     0
300
3/32" = 1'-0"
140
0.09375
141
12.0
290
     0
  0
SCALE
  5
355C
102
{ACAD_REACTORS
330
3545
102
}
330
3545
100
AcDbScale
 70
     0
300
1/8" = 1'-0"
140
0.125
141
12.0
290
     0
  0
SCALE
  5
355D
102
{ACAD_REACTORS
330
3545
102
}
330
3545
100
AcDbScale
 70
     0
300
3/16" = 1'-0"
140
0.1875
141
12.0
290
     0
  0
SCALE
  5
355E
102
{ACAD_REACTORS
330
3545
102
}
330
3545
100
AcDbScale
 70
     0
300
1/4" = 1'-0"
140
0.25
141
12.0
290
     0
  0
SCALE
  5
355F
102
{ACAD_REACTORS
330
3545
102
}
330
3545
100
AcDbScale
 70
     0
300
3/8" = 1'-0"
140
0.375
141
12.0
290
     0
  0
SCALE
  5
3560
102
{ACAD_REACTORS
330
3545
102
}
330
3545
100
AcDbScale
 70
     0
300
1/2" = 1'-0"
140
0.5
141
12.0
290
     0
  0
SCALE
  5
3561
102
{ACAD_REACTORS
330
3545
102
}
330
3545
100
AcDbScale
 70
     0
300
3/4" = 1'-0"
140
0.75
141
12.0
290
     0
  0
SCALE
  5
3562
102
{ACAD_REACTORS
330
3545
102
}
330
3545
100
AcDbScale
 70
     0
300
1" = 1'-0"
140
1.0
141
12.0
290
     0
  0
SCALE
  5
3563
102
{ACAD_REACTORS
330
3545
102
}
330
3545
100
AcDbScale
 70
     0
300
1-1/2" = 1'-0"
140
1.5
141
12.0
290
     0
  0
SCALE
  5
3564
102
{ACAD_REACTORS
330
3545
102
}
330
3545
100
AcDbScale
 70
     0
300
3" = 1'-0"
140
3.0
141
12.0
290
     0
  0
SCALE
  5
3565
102
{ACAD_REACTORS
330
3545
102
}
330
3545
100
AcDbScale
 70
     0
300
6" = 1'-0"
140
6.0
141
12.0
290
     0
  0
SCALE
  5
3566
102
{ACAD_REACTORS
330
3545
102
}
330
3545
100
AcDbScale
 70
     0
300
1'-0" = 1'-0"
140
12.0
141
12.0
290
     0
  0
TABLESTYLE
  5
4BB
102
{ACAD_XDICTIONARY
360
382E
102
}
102
{ACAD_REACTORS
330
4BA
102
}
330
4BA
100
AcDbTableStyle
  3
Standard
 70
     0
 71
     0
 40
0.06
 41
0.06
280
     0
281
     0
  7
Standard
140
0.18
170
     2
 62
     0
 63
     7
283
     0
274
    -2
284
     1
 64
     0
275
    -2
285
     1
 65
     0
276
    -2
286
     1
 66
     0
277
    -2
287
     1
 67
     0
278
    -2
288
     1
 68
     0
279
    -2
289
     1
 69
     0
  7
Standard
140
0.25
170
     5
 62
     0
 63
     7
283
     0
274
    -2
284
     1
 64
     0
275
    -2
285
     1
 65
     0
276
    -2
286
     1
 66
     0
277
    -2
287
     1
 67
     0
278
    -2
288
     1
 68
     0
279
    -2
289
     1
 69
     0
  7
Standard
140
0.18
170
     5
 62
     0
 63
     7
283
     0
274
    -2
284
     1
 64
     0
275
    -2
285
     1
 65
     0
276
    -2
286
     1
 66
     0
277
    -2
287
     1
 67
     0
278
    -2
288
     1
 68
     0
279
    -2
289
     1
 69
     0
  0
VISUALSTYLE
  5
2F
102
{ACAD_XDICTIONARY
360
49A
102
}
102
{ACAD_REACTORS
330
2A
102
}
330
2A
100
AcDbVisualStyle
  2
2dWireframe
 70
     4
 71
     0
 72
     2
 73
     0
 90
        0
 40
-0.6
 41
-30.0
 62
     5
 63
     7
 74
     1
 91
        4
 64
     7
 65
   257
 75
     1
175
     1
 42
1.0
 92
        0
 66
   257
 43
1.0
 76
     1
 77
     6
 78
     2
 67
     7
 79
     5
170
     0
171
     0
290
     0
174
     0
 93
        1
 44
0.0
173
     0
291
     0
 45
0.0
1001
ACAD
1000
AcDbSavedByObjectVersion
1070
     0
1000
AcDbSavedByObjectVersion
1070
     0
1000
AcDbSavedByObjectVersion
1070
     0
1000
AcDbSavedByObjectVersion
1070
     0
1000
AcDbSavedByObjectVersion
1070
     0
1000
AcDbSavedByObjectVersion
1070
     0
1000
AcDbSavedByObjectVersion
1070
     0
  0
VISUALSTYLE
  5
A48
102
{ACAD_REACTORS
330
2A
102
}
330
2A
100
AcDbVisualStyle
  2
3D Hidden
 70
     6
 71
     1
 72
     2
 73
     2
 90
        0
 40
-0.6
 41
-30.0
 62
     5
 63
     7
 74
     2
 91
        2
 64
     7
 65
   257
 75
     2
175
     1
 42
40.0
 92
        0
 66
   257
 43
1.0
 76
     1
 77
     6
 78
     2
 67
     7
 79
     3
170
     0
171
     0
290
     0
174
     0
 93
        1
 44
0.0
173
     0
291
     0
 45
0.0
1001
ACAD
1000
AcDbSavedByObjectVersion
1070
     0
1000
AcDbSavedByObjectVersion
1070
     0
1000
AcDbSavedByObjectVersion
1070
     0
1000
AcDbSavedByObjectVersion
1070
     0
1000
AcDbSavedByObjectVersion
1070
     0
1000
AcDbSavedByObjectVersion
1070
     0
1000
AcDbSavedByObjectVersion
1070
     0
  0
VISUALSTYLE
  5
A47
102
{ACAD_REACTORS
330
2A
102
}
330
2A
100
AcDbVisualStyle
  2
3dWireframe
 70
     5
 71
     0
 72
     2
 73
     0
 90
        0
 40
-0.6
 41
-30.0
 62
     5
 63
     7
 74
     1
 91
        4
 64
     7
 65
   257
 75
     1
175
     1
 42
1.0
 92
        0
 66
   257
 43
1.0
 76
     1
 77
     6
 78
     2
 67
     7
 79
     5
170
     0
171
     0
290
     0
174
     0
 93
        1
 44
0.0
173
     0
291
     0
 45
0.0
1001
ACAD
1000
AcDbSavedByObjectVersion
1070
     0
1000
AcDbSavedByObjectVersion
1070
     0
1000
AcDbSavedByObjectVersion
1070
     0
1000
AcDbSavedByObjectVersion
1070
     0
1000
AcDbSavedByObjectVersion
1070
     0
1000
AcDbSavedByObjectVersion
1070
     0
1000
AcDbSavedByObjectVersion
1070
     0
  0
VISUALSTYLE
  5
32
102
{ACAD_XDICTIONARY
360
4A0
102
}
102
{ACAD_REACTORS
330
2A
102
}
330
2A
100
AcDbVisualStyle
  2
Basic
 70
     7
 71
     1
 72
     0
 73
     1
 90
        0
 40
-0.6
 41
-30.0
 62
     5
 63
     7
 74
     0
 91
        4
 64
     7
 65
   257
 75
     1
175
     1
 42
1.0
 92
        8
 66
     7
 43
1.0
 76
     1
 77
     6
 78
     2
 67
     7
 79
     5
170
     0
171
     0
290
     0
174
     0
 93
        1
 44
0.0
173
     0
291
     1
 45
0.0
1001
ACAD
1000
AcDbSavedByObjectVersion
1070
     0
1000
AcDbSavedByObjectVersion
1070
     0
1000
AcDbSavedByObjectVersion
1070
     0
1000
AcDbSavedByObjectVersion
1070
     0
1000
AcDbSavedByObjectVersion
1070
     0
1000
AcDbSavedByObjectVersion
1070
     0
1000
AcDbSavedByObjectVersion
1070
     0
  0
VISUALSTYLE
  5
36
102
{ACAD_XDICTIONARY
360
4A8
102
}
102
{ACAD_REACTORS
330
2A
102
}
330
2A
100
AcDbVisualStyle
  2
Brighten
 70
    12
 71
     2
 72
     2
 73
     0
 90
        0
 40
-0.6
 41
-30.0
 62
     5
 63
     7
 74
     1
 91
        4
 64
     7
 65
   257
 75
     1
175
     1
 42
1.0
 92
        8
 66
     7
 43
1.0
 76
     1
 77
     6
 78
     2
 67
     7
 79
     5
170
     0
171
     0
290
     0
174
     0
 93
        1
 44
50.0
173
     0
291
     1
 45
0.0
1001
ACAD
1000
AcDbSavedByObjectVersion
1070
     0
1000
AcDbSavedByObjectVersion
1070
     0
1000
AcDbSavedByObjectVersion
1070
     0
1000
AcDbSavedByObjectVersion
1070
     0
1000
AcDbSavedByObjectVersion
1070
     0
1000
AcDbSavedByObjectVersion
1070
     0
1000
AcDbSavedByObjectVersion
1070
     0
  0
VISUALSTYLE
  5
3A
102
{ACAD_XDICTIONARY
360
4B0
102
}
102
{ACAD_REACTORS
330
2A
102
}
330
2A
100
AcDbVisualStyle
  2
ColorChange
 70
    16
 71
     2
 72
     2
 73
     3
 90
        0
 40
-0.6
 41
-30.0
 62
     5
 63
     8
 74
     1
 91
        4
 64
     7
 65
   257
 75
     1
175
     1
 42
1.0
 92
        8
 66
     8
 43
1.0
 76
     1
 77
     6
 78
     2
 67
     7
 79
     5
170
     0
171
     0
290
     0
174
     0
 93
        1
 44
0.0
173
     0
291
     1
 45
0.0
1001
ACAD
1000
AcDbSavedByObjectVersion
1070
     0
1000
AcDbSavedByObjectVersion
1070
     0
1000
AcDbSavedByObjectVersion
1070
     0
1000
AcDbSavedByObjectVersion
1070
     0
1000
AcDbSavedByObjectVersion
1070
     0
1000
AcDbSavedByObjectVersion
1070
     0
1000
AcDbSavedByObjectVersion
1070
     0
  0
VISUALSTYLE
  5
A49
102
{ACAD_REACTORS
330
2A
102
}
330
2A
100
AcDbVisualStyle
  2
Conceptual
 70
     9
 71
     3
 72
     2
 73
     0
 90
        0
 40
-0.6
 41
-30.0
 62
     5
 63
     7
 74
     2
 91
        2
 64
     7
 65
   257
 75
     1
175
     1
 42
40.0
 92
        8
 66
     7
 43
1.0
 76
     1
 77
     6
 78
     2
 67
     7
 79
     3
170
     0
171
     0
290
     0
174
     0
 93
        1
 44
0.0
173
     0
291
     0
 45
0.0
1001
ACAD
1000
AcDbSavedByObjectVersion
1070
     0
1000
AcDbSavedByObjectVersion
1070
     0
1000
AcDbSavedByObjectVersion
1070
     0
1000
AcDbSavedByObjectVersion
1070
     0
1000
AcDbSavedByObjectVersion
1070
     0
1000
AcDbSavedByObjectVersion
1070
     0
1000
AcDbSavedByObjectVersion
1070
     0
  0
VISUALSTYLE
  5
35
102
{ACAD_XDICTIONARY
360
4A6
102
}
102
{ACAD_REACTORS
330
2A
102
}
330
2A
100
AcDbVisualStyle
  2
Dim
 70
    11
 71
     2
 72
     2
 73
     0
 90
        0
 40
-0.6
 41
-30.0
 62
     5
 63
     7
 74
     1
 91
        4
 64
     7
 65
   257
 75
     1
175
     1
 42
1.0
 92
        8
 66
     7
 43
1.0
 76
     1
 77
     6
 78
     2
 67
     7
 79
     5
170
     0
171
     0
290
     0
174
     0
 93
        1
 44
-50.0
173
     0
291
     1
 45
0.0
1001
ACAD
1000
AcDbSavedByObjectVersion
1070
     0
1000
AcDbSavedByObjectVersion
1070
     0
1000
AcDbSavedByObjectVersion
1070
     0
1000
AcDbSavedByObjectVersion
1070
     0
1000
AcDbSavedByObjectVersion
1070
     0
1000
AcDbSavedByObjectVersion
1070
     0
1000
AcDbSavedByObjectVersion
1070
     0
  0
VISUALSTYLE
  5
39
102
{ACAD_XDICTIONARY
360
4AE
102
}
102
{ACAD_REACTORS
330
2A
102
}
330
2A
100
AcDbVisualStyle
  2
Facepattern
 70
    15
 71
     2
 72
     2
 73
     0
 90
        0
 40
-0.6
 41
-30.0
 62
     5
 63
     7
 74
     1
 91
        4
 64
     7
 65
   257
 75
     1
175
     1
 42
1.0
 92
        8
 66
     7
 43
1.0
 76
     1
 77
     6
 78
     2
 67
     7
 79
     5
170
     0
171
     0
290
     0
174
     0
 93
        1
 44
0.0
173
     0
291
     1
 45
0.0
1001
ACAD
1000
AcDbSavedByObjectVersion
1070
     0
1000
AcDbSavedByObjectVersion
1070
     0
1000
AcDbSavedByObjectVersion
1070
     0
1000
AcDbSavedByObjectVersion
1070
     0
1000
AcDbSavedByObjectVersion
1070
     0
1000
AcDbSavedByObjectVersion
1070
     0
1000
AcDbSavedByObjectVersion
1070
     0
  0
VISUALSTYLE
  5
2B
102
{ACAD_XDICTIONARY
360
492
102
}
102
{ACAD_REACTORS
330
2A
102
}
330
2A
100
AcDbVisualStyle
  2
Flat
 70
     0
 71
     2
 72
     1
 73
     1
 90
        2
 40
-0.6
 41
30.0
 62
     5
 63
     7
 74
     0
 91
        4
 64
     7
 65
   257
 75
     1
175
     1
 42
1.0
 92
        8
 66
     7
 43
1.0
 76
     1
 77
     6
 78
     2
 67
     7
 79
     5
170
     0
171
     0
290
     0
174
     0
 93
       13
 44
0.0
173
     0
291
     1
 45
0.0
1001
ACAD
1000
AcDbSavedByObjectVersion
1070
     0
1000
AcDbSavedByObjectVersion
1070
     0
1000
AcDbSavedByObjectVersion
1070
     0
1000
AcDbSavedByObjectVersion
1070
     0
1000
AcDbSavedByObjectVersion
1070
     0
1000
AcDbSavedByObjectVersion
1070
     0
1000
AcDbSavedByObjectVersion
1070
     0
  0
VISUALSTYLE
  5
2C
102
{ACAD_XDICTIONARY
360
494
102
}
102
{ACAD_REACTORS
330
2A
102
}
330
2A
100
AcDbVisualStyle
  2
FlatWithEdges
 70
     1
 71
     2
 72
     1
 73
     1
 90
        2
 40
-0.6
 41
30.0
 62
     5
 63
     7
 74
     1
 91
        4
 64
     7
 65
   257
 75
     1
175
     1
 42
1.0
 92
        0
 66
   257
 43
1.0
 76
     1
 77
     6
 78
     2
 67
     7
 79
     5
170
     0
171
     0
290
     0
174
     0
 93
       13
 44
0.0
173
     0
291
     1
 45
0.0
1001
ACAD
1000
AcDbSavedByObjectVersion
1070
     0
1000
AcDbSavedByObjectVersion
1070
     0
1000
AcDbSavedByObjectVersion
1070
     0
1000
AcDbSavedByObjectVersion
1070
     0
1000
AcDbSavedByObjectVersion
1070
     0
1000
AcDbSavedByObjectVersion
1070
     0
1000
AcDbSavedByObjectVersion
1070
     0
  0
VISUALSTYLE
  5
2D
102
{ACAD_XDICTIONARY
360
496
102
}
102
{ACAD_REACTORS
330
2A
102
}
330
2A
100
AcDbVisualStyle
  2
Gouraud
 70
     2
 71
     2
 72
     2
 73
     1
 90
        2
 40
-0.6
 41
30.0
 62
     5
 63
     7
 74
     0
 91
        4
 64
     7
 65
   257
 75
     1
175
     1
 42
1.0
 92
        0
 66
     7
 43
1.0
 76
     1
 77
     6
 78
     2
 67
     7
 79
     5
170
     0
171
     0
290
     0
174
     0
 93
       13
 44
0.0
173
     0
291
     1
 45
0.0
1001
ACAD
1000
AcDbSavedByObjectVersion
1070
     0
1000
AcDbSavedByObjectVersion
1070
     0
1000
AcDbSavedByObjectVersion
1070
     0
1000
AcDbSavedByObjectVersion
1070
     0
1000
AcDbSavedByObjectVersion
1070
     0
1000
AcDbSavedByObjectVersion
1070
     0
1000
AcDbSavedByObjectVersion
1070
     0
  0
VISUALSTYLE
  5
2E
102
{ACAD_XDICTIONARY
360
498
102
}
102
{ACAD_REACTORS
330
2A
102
}
330
2A
100
AcDbVisualStyle
  2
GouraudWithEdges
 70
     3
 71
     2
 72
     2
 73
     1
 90
        2
 40
-0.6
 41
30.0
 62
     5
 63
     7
 74
     1
 91
        4
 64
     7
 65
   257
 75
     1
175
     1
 42
1.0
 92
        0
 66
   257
 43
1.0
 76
     1
 77
     6
 78
     2
 67
     7
 79
     5
170
     0
171
     0
290
     0
174
     0
 93
       13
 44
0.0
173
     0
291
     1
 45
0.0
1001
ACAD
1000
AcDbSavedByObjectVersion
1070
     0
1000
AcDbSavedByObjectVersion
1070
     0
1000
AcDbSavedByObjectVersion
1070
     0
1000
AcDbSavedByObjectVersion
1070
     0
1000
AcDbSavedByObjectVersion
1070
     0
1000
AcDbSavedByObjectVersion
1070
     0
1000
AcDbSavedByObjectVersion
1070
     0
  0
VISUALSTYLE
  5
38
102
{ACAD_XDICTIONARY
360
4AC
102
}
102
{ACAD_REACTORS
330
2A
102
}
330
2A
100
AcDbVisualStyle
  2
Linepattern
 70
    14
 71
     2
 72
     2
 73
     0
 90
        0
 40
-0.6
 41
-30.0
 62
     5
 63
     7
 74
     1
 91
        4
 64
     7
 65
   257
 75
     7
175
     7
 42
1.0
 92
        8
 66
     7
 43
1.0
 76
     1
 77
     6
 78
     2
 67
     7
 79
     5
170
     0
171
     0
290
     0
174
     0
 93
        1
 44
0.0
173
     0
291
     1
 45
0.0
1001
ACAD
1000
AcDbSavedByObjectVersion
1070
     0
1000
AcDbSavedByObjectVersion
1070
     0
1000
AcDbSavedByObjectVersion
1070
     0
1000
AcDbSavedByObjectVersion
1070
     0
1000
AcDbSavedByObjectVersion
1070
     0
1000
AcDbSavedByObjectVersion
1070
     0
1000
AcDbSavedByObjectVersion
1070
     0
  0
VISUALSTYLE
  5
A4A
102
{ACAD_REACTORS
330
2A
102
}
330
2A
100
AcDbVisualStyle
  2
Realistic
 70
     8
 71
     2
 72
     2
 73
     0
 90
        0
 40
-0.6
 41
-30.0
 62
     5
 63
     7
 74
     1
 91
        0
 64
     7
 65
   257
 75
     1
175
     1
 42
1.0
 92
        8
 66
     8
 43
1.0
 76
     1
 77
     6
 78
     2
 67
     7
 79
     5
170
     0
171
     0
290
     0
174
     0
 93
       13
 44
0.0
173
     0
291
     0
 45
0.0
1001
ACAD
1000
AcDbSavedByObjectVersion
1070
     0
1000
AcDbSavedByObjectVersion
1070
     0
1000
AcDbSavedByObjectVersion
1070
     0
1000
AcDbSavedByObjectVersion
1070
     0
1000
AcDbSavedByObjectVersion
1070
     0
1000
AcDbSavedByObjectVersion
1070
     0
1000
AcDbSavedByObjectVersion
1070
     0
  0
VISUALSTYLE
  5
37
102
{ACAD_XDICTIONARY
360
4AA
102
}
102
{ACAD_REACTORS
330
2A
102
}
330
2A
100
AcDbVisualStyle
  2
Thicken
 70
    13
 71
     2
 72
     2
 73
     0
 90
        0
 40
-0.6
 41
-30.0
 62
     5
 63
     7
 74
     1
 91
        4
 64
     7
 65
   257
 75
     1
175
     1
 42
1.0
 92
       12
 66
     7
 43
1.0
 76
     1
 77
     6
 78
     2
 67
     7
 79
     5
170
     0
171
     0
290
     0
174
     0
 93
        1
 44
0.0
173
     0
291
     1
 45
0.0
1001
ACAD
1000
AcDbSavedByObjectVersion
1070
     0
1000
AcDbSavedByObjectVersion
1070
     0
1000
AcDbSavedByObjectVersion
1070
     0
1000
AcDbSavedByObjectVersion
1070
     0
1000
AcDbSavedByObjectVersion
1070
     0
1000
AcDbSavedByObjectVersion
1070
     0
1000
AcDbSavedByObjectVersion
1070
     0
  0
DICTIONARYVAR
  5
3833
102
{ACAD_REACTORS
330
487
102
}
330
487
100
DictionaryVariables
280
     0
  1
1:1
  0
DICTIONARYVAR
  5
3831
102
{ACAD_REACTORS
330
487
102
}
330
487
100
DictionaryVariables
280
     0
  1
STANDARD
  0
DICTIONARYVAR
  5
5FE
102
{ACAD_REACTORS
330
487
102
}
330
487
100
DictionaryVariables
280
     0
  1
STANDARD
  0
DICTIONARYVAR
  5
48A
102
{ACAD_REACTORS
330
487
102
}
330
487
100
DictionaryVariables
280
     0
  1
2
  0
DICTIONARYVAR
  5
48B
102
{ACAD_REACTORS
330
487
102
}
330
487
100
DictionaryVariables
280
     0
  1
1
  0
DICTIONARYVAR
  5
86B
102
{ACAD_REACTORS
330
487
102
}
330
487
100
DictionaryVariables
280
     0
  1
0
  0
DICTIONARYVAR
  5
3834
102
{ACAD_REACTORS
330
487
102
}
330
487
100
DictionaryVariables
280
     0
  1
0
  0
DICTIONARYVAR
  5
3832
102
{ACAD_REACTORS
330
487
102
}
330
487
100
DictionaryVariables
280
     0
  1
0
  0
DICTIONARYVAR
  5
86A
102
{ACAD_REACTORS
330
487
102
}
330
487
100
DictionaryVariables
280
     0
  1
127
  0
DICTIONARY
  5
7D4
330
1E
100
AcDbDictionary
280
     1
281
     1
  3
ADSK_XREC_LAYOUTTHUMBNAIL
360
7D5
  0
DICTIONARY
  5
3D1A
330
3D
100
AcDbDictionary
280
     1
281
     1
  3
ACAD_XREC_ROUNDTRIP
360
3D1B
  0
DICTIONARY
  5
3D18
330
3C
100
AcDbDictionary
280
     1
281
     1
  3
ACAD_XREC_ROUNDTRIP
360
3D19
  0
DICTIONARY
  5
3D1C
330
3E
100
AcDbDictionary
280
     1
281
     1
  3
ACAD_XREC_ROUNDTRIP
360
3D1D
  0
DICTIONARY
  5
382E
330
4BB
100
AcDbDictionary
280
     1
281
     1
  3
ACAD_ROUNDTRIP_2008_TABLESTYLE_CELLSTYLEMAP
360
5F2B
  3
ACAD_XREC_ROUNDTRIP
360
5F2C
  0
DICTIONARY
  5
49A
330
2F
100
AcDbDictionary
280
     1
281
     1
  3
ACAD_XREC_ROUNDTRIP
360
49B
  0
DICTIONARY
  5
4A0
330
32
100
AcDbDictionary
280
     1
281
     1
  3
ACAD_XREC_ROUNDTRIP
360
4A1
  0
DICTIONARY
  5
4A8
330
36
100
AcDbDictionary
280
     1
281
     1
  3
ACAD_XREC_ROUNDTRIP
360
4A9
  0
DICTIONARY
  5
4B0
330
3A
100
AcDbDictionary
280
     1
281
     1
  3
ACAD_XREC_ROUNDTRIP
360
4B1
  0
DICTIONARY
  5
4A6
330
35
100
AcDbDictionary
280
     1
281
     1
  3
ACAD_XREC_ROUNDTRIP
360
4A7
  0
DICTIONARY
  5
4AE
330
39
100
AcDbDictionary
280
     1
281
     1
  3
ACAD_XREC_ROUNDTRIP
360
4AF
  0
DICTIONARY
  5
492
330
2B
100
AcDbDictionary
280
     1
281
     1
  3
ACAD_XREC_ROUNDTRIP
360
493
  0
DICTIONARY
  5
494
330
2C
100
AcDbDictionary
280
     1
281
     1
  3
ACAD_XREC_ROUNDTRIP
360
495
  0
DICTIONARY
  5
496
330
2D
100
AcDbDictionary
280
     1
281
     1
  3
ACAD_XREC_ROUNDTRIP
360
497
  0
DICTIONARY
  5
498
330
2E
100
AcDbDictionary
280
     1
281
     1
  3
ACAD_XREC_ROUNDTRIP
360
499
  0
DICTIONARY
  5
4AC
330
38
100
AcDbDictionary
280
     1
281
     1
  3
ACAD_XREC_ROUNDTRIP
360
4AD
  0
DICTIONARY
  5
4AA
330
37
100
AcDbDictionary
280
     1
281
     1
  3
ACAD_XREC_ROUNDTRIP
360
4AB
  0
XRECORD
  5
7D5
102
{ACAD_REACTORS
330
7D4
102
}
330
7D4
100
AcDbXrecord
280
     1
310
28000000B40000007F00000001000800000000004C59000000000000000000000001000000000000FFFFFF0000000000FFFFFF000000000000000000000000000000000000000000000000000000000000000000330000006600000099000000CC000000FF00000000330000333300006633000099330000CC330000FF3300
310
0000660000336600006666000099660000CC660000FF66000000990000339900006699000099990000CC990000FF99000000CC000033CC000066CC000099CC0000CCCC0000FFCC000000FF000033FF000066FF000099FF0000CCFF0000FFFF000000003300330033006600330099003300CC003300FF003300003333003333
310
33006633330099333300CC333300FF33330000663300336633006666330099663300CC663300FF66330000993300339933006699330099993300CC993300FF99330000CC330033CC330066CC330099CC3300CCCC3300FFCC330000FF330033FF330066FF330099FF3300CCFF3300FFFF330000006600330066006600660099
310
006600CC006600FF00660000336600333366006633660099336600CC336600FF33660000666600336666006666660099666600CC666600FF66660000996600339966006699660099996600CC996600FF99660000CC660033CC660066CC660099CC6600CCCC6600FFCC660000FF660033FF660066FF660099FF6600CCFF6600
310
FFFF660000009900330099006600990099009900CC009900FF00990000339900333399006633990099339900CC339900FF33990000669900336699006666990099669900CC669900FF66990000999900339999006699990099999900CC999900FF99990000CC990033CC990066CC990099CC9900CCCC9900FFCC990000FF99
310
0033FF990066FF990099FF9900CCFF9900FFFF99000000CC003300CC006600CC009900CC00CC00CC00FF00CC000033CC003333CC006633CC009933CC00CC33CC00FF33CC000066CC003366CC006666CC009966CC00CC66CC00FF66CC000099CC003399CC006699CC009999CC00CC99CC00FF99CC0000CCCC0033CCCC0066CC
310
CC0099CCCC00CCCCCC00FFCCCC0000FFCC0033FFCC0066FFCC0099FFCC00CCFFCC00FFFFCC000000FF003300FF006600FF009900FF00CC00FF00FF00FF000033FF003333FF006633FF009933FF00CC33FF00FF33FF000066FF003366FF006666FF009966FF00CC66FF00FF66FF000099FF003399FF006699FF009999FF00CC
310
99FF00FF99FF0000CCFF0033CCFF0066CCFF0099CCFF00CCCCFF00FFCCFF0000FFFF0033FFFF0066FFFF0099FFFF00CCFFFF00FFFFFF00000000000D0D0D001A1A1A00282828003535350043434300505050005D5D5D006B6B6B00787878008686860093939300A1A1A100AEAEAE00BBBBBB00C9C9C900D6D6D600E4E4E400
310
F1F1F100FFFFFF0000000000000000000000000000000000000000000000000000000000000000000000000000000000E2E2E2E2E2E2E2E2E2E2E2E2E2E2E2E2E2E2E2E2E2E2E2E2E2E2E2E2E2E2E2E2E2E2E2E2E2E2E2E2E2E2E2E2E2E2E2E2E2E2E2E2E2E2E2E2E2E2E2E2E2E2E2E2E2E2E2E2E2E2E2E2E2E2E2E2E2E2E2
310
E2E2E2E2E2E2E2E2E2E2E2E2E2E2E2E2E2E2E2E2E2E2E2E2E2E2E2E2E2E2E2E2E2E2E2E2E2E2E2E2E2E2E2E2E2E2E2E2E2E2E2E2E2E2E2E2E2E2E2E2E2E2E2E2E2E2E2E2E2E2E2E2E2E2E2E2E2E2E2E2E2E2E2E2E2E2E2E2E2E2E2E2E2E2E2E2E2E2E2E2E2E2F5F5F5F5F5F5F5F5F5F5F5F5F5F5F5F5F5F5F5F5F5F5F5F5F5
310
F5F5F5F5F5F5F5F5F5F5F5F5F5F5F5F5F5F5F5F5F5F5F5F5F5F5F5F5F5F5F5F5F5F5F5F5F5F5F5F5F5F5F5F5F5F5F5F5F5F5F5F5F5F5F5F5F5F5F5F5F5F5F5F5F5F5F5F5F5F5F5F5F5F5F5F5F5F5F5F5F5F5F5F5F5F5F5F5F5F5F5F5F5F5F5F5F5F5F5F5F5F5F5F5F5F5F5F5F5F5F5F5F5F5F5F5F5F5F5F5F5F5F5F5F5F5F5
310
F5F5F5F5F5F5F5F5F5F5F5F5F5F5F5F5F5F5F5F5F5F5F5F5F5E2E2E2F5E2E2E2E2E2E2E2E2E2E2E2E2E2E2E2E2E2E2E2E2E2E2E2E2E2E2E2E2E2E2E2E2E2E2E2E2E2E2E2E2E2E2E2E2E2E2E2E2E2E2E2E2E2E2E2E2E2E2E2E2E2E2E2E2E2E2E2E2E2E2E2E2E2E2E2E2E2E2E2E2E2E2E2E2E2E2E2E2E2E2E2E2E2E2E2E2E2E2
310
E2E2E2E2E2E2E2E2E2E2E2E2E2E2E2E2E2E2E2E2E2E2E2E2E2E2E2E2E2E2E2E2E2E2E2E2E2E2E2E2E2E2E2E2E2E2E2E2E2E2E2E2E2E2E2E2E2E2E2E2E2E2E2E2E2E2E2E2E2E2E2E2E2E2E2E2E2F5E2E2E2F5E2F5F5F5F5F5F5F5F5F5F5F5F5F5F5F5F5F5F5F5F5F5F5F5F5F5F5F5F5F5F5F5F5F5F5F5F5F5F5F5F5F5F5F5F5
310
F5F5F5F5F5F5F5F5F5F5F5F5F5F5F5F5F5F5F5F5F5F5F5F5F5F5F5F5F5F5F5F5F5F5F5F5F5F5F5F5F5F5F5F5F5F5F5F5F5F5F5F5F5F5F5F5F5F5F5F5F5F5F5F5F5F5F5F5F5F5F5F5F5F5F5F5F5F5F5F5F5F5F5F5F5F5F5F5F5F5F5F5F5F5F5F5F5F5F5F5F5F5F5F5F5F5F5F5F5F5F5F5F5F5F5F5F5F5F5F5F5F5F5F5F5F5F5
310
F5F5E2F5E2E2E2F5E2F5F5F5F5F5F5F5F5F5F5F5F5F5F5F5F5F5F5F5F5F5F5F5F5F5F5F5F5F5F5F5F5F5F5F5F5F5F5F5F5F5F5F5F5F5F5F5F5F5F5F5F5F5F5F5F5F5F5F5F5F5F5F5F5F5F5F5F5F5F5F5F5F5F5F5F5F5F5F5F5F5F5F5F5F5F5F5F5F5F5F5F5F5F5F5F5F5F5F5F5F5F5F5F5F5F5F5F5F5F5F5F5F5F5F5F5F5F5
310
F5F5F5F5F5F5F5F5F5F5F5F5F5F5F5F5F5F5F5F5F5F5F5F5F5F5F5F5F5F5F5F5F5F5F5F5F5F5F5F5F5F5F5F5F5F5F5F5F5F5F5F5F5F5F5E2F5E2E2E2F5E2F5F5F5F5F5F5F5F5F5F5F5F5F5F5F5F5F5F5F5F5F5F5F5F5F5F5F5F5F5F5F5F5F5F5F5F5F5F5F5F5F5F5F5F5F5F5F5F5F5F5F5F5F5F5F5F5F5F5F5F5F5F5F5F5F5
310
F5F5F5F5F5F5F5F5F5F5F5F5F5F5F5F5F5F5F5F5F5F5F5F5F5F5F5F5F5F5F5F5F5F5F5F5F5F5F5F5F5F5F5F5F5F5F5F5F5F5F5F5F5F5F5F5F5F5F5F5F5F5F5F5F5F5F5F5F5F5F5F5F5F5F5F5F5F5F5F5F5F5F5F5F5F5F5F5F5F5F5F5F5F5F5F5F5F5F5F5F5F5F5F5F5F5F5F5E2F5E2E2E2F5E2F5F5F5F5F5F5F5F5F5F5F5F5
310
F5F5F5F5F5F5F5F5F5F5F5F5F5F5F5F5F5F5F5F5F5F5F5F5F5F5F5F5F5F5F5F5F5F5F5F5F5F5F5F5F5F5F5F5F5F5F5F5F5F5F5F5F5F5F5F5F5F5F5F5F5F5F5F5F5F5F5F5F5F5F5F5F5F5F5F5F5F5F5F5F5F5F5F5F5F5F5F5F5F5F5F5F5F5F5F5F5F5F5F5F5F5F5F5F5F5F5F5F5F5F5F5F5F5F5F5F5F5F5F5F5F5F5F5F5F5F5
310
F5F5F5F5F5F5F5F5F5F5F5F5F5F5F5F5F5F5F5F5F5F5F5F5F5F5F5F5F5F5F5F5F5F5E2F5E2E2E2F5E2F5F5F5F5F5F5F5F5F5F5F5F5F5F5F5F5F5F5F5F5F5F5F5F5F5F5F5F5F5F5F5F5F5F5F5F5F5F5F5F5F5F5F5F5F5F5F5F5F5F5F5F5F5F5F5F5F5F5F5F5F5F5F5F5F5F5F5F5F5F5F5F5F5F5F5F5F5F5F5F5F5F5F5F5F5F5
310
F5F5F5F5F5F5F5F5F5F5F5F5F5F5F5F5F5F5F5F5F5F5F5F5F5F5F5F5F5F5F5F5F5F5F5F5F5F5F5F5F5F5F5F5F5F5F5F5F5F5F5F5F5F5F5F5F5F5F5F5F5F5F5F5F5F5F5F5F5F5F5F5F5F5F5F5F5F5F5F5F5F5F5F5F5F5F5E2F5E2E2E2F5E2F5F5F5F5F5F5F5F5F5F5F5F5F5F5F5F5F5F5F5F5F5F5F5F5F5F5F5F5F5F5F5F5F5
310
F5F5F5F5F5F5F5F5F5F5F5F5F5F5F5F5F5F5F5F5F5F5F5F5F5F5F5F5F5F5F5F5F5F5F5F5F5F5F5F5F5F5F5F5F5F5F5F5F5F5F5F5F5F5F5F5F5F5F5F5F5F5F5F5F5F5F5F5F5F5F5F5F5F5F5F5F5F5F5F5F5F5F5F5F5F5F5F5F5F5F5F5F5F5F5F5F5F5F5F5F5F5F5F5F5F5F5F5F5F5F5F5F5F5F5F5F5F5F5F5F5F5F5F5F5F5F5
310
F5F5F5F5F5F5F5F5F5F5F5F5F5E2F5E2E2E2F5E2F5F5F5F5F5F5F5F5F5F5F5F5F5F5F5F5F5F5F5F5F5F5F5F5F5F5F5F5F5F5F5F5F5F5F5F5F5F5F5F5F5F5F5F5F5F5F5F5F5F5F5F5F5F5F5F5F5F5F5F5F5F5F5F5F5F5F5F5F5F5F5F5F5F5F5F5F5F5F5F5F5F5F5F5F5F5F5F5F5F5F5F5F5F5F5F5F5F5F5F5F5F5F5F5F5F5F5
310
F5F5F5F5F5F5F5F5F5F5F5F5F5F5F5F5F5F5F5F5F5F5F5F5F5F5F5F5F5F5F5F5F5F5F5F5F5F5F5F5F5F5F5F5F5F5F5F5F5F5F5F5E2BEF5F5F5F5F5F5F5F5F5F5F5F5E2F5E2E2E2F5E2F5F5F5F5F5F5F5F5F5F5F5F5F5F5F5F5F5F5F5F5F5F5F5F5F5F5F5F5F5F5F5F5F5F5F5F5F5F5F5F5F5F5F5F5F5F5E2E2E2E2E2E2E2E2
310
F5F5F5E2E2E2E2E2E2E2F5F5F5E2E2E2E2E2E2E2F5F5F5E2E2E2E2E2E2E2E2F5F5E2E2E2E2E2E2E2E2F5F5E2E2E2E2E2E2E2E2F5F5E2E2E2E2E2E2E2E2F5F5E2E2E2E2E2E2E2E2E2F5F5F5F5F5F5F5F5F5F5F5F5F5F5F5F5F5F5F5F5F5F5F5F5F5F5F5F5F5F5F5E2E2E2E2E2F5F5F5F5F5F5F5F5F5F5F5E2F5E2E2E2F5E2F5
310
F5F5F5F5F5F5F5F5F5F5F5F5F5F5F5F5F5F5F5F5F5F5F5F5F5F5F5F5F5F5F5F5F5F5F5F5F5F5F5F5F5F5F5F5E2F5F5F5F5F5F5F5F5F5F5F5F5F5F5F5F5F5F5F5F5F5F5F5F5F5F5F5F5F5F5F5F5F5F5F5F5F5F5F5F5F5F5F5F5F5F5F5F5F5F5F5F5F5F5F5F5F5F5F5F5F5F5F5F5F5F5F5F5F5F5F5F5F5F5F5F5F5F5F5F5E2F5
310
F5F5F5F5F5F5F5F5F5F5F5F5F5F5F5F5F5F5F5F5F5F5F5F5F5F5F5F5F5F5BEE2F5F5F5F5F5F5F5F5F5F5F5F5F5E2F5E2E2E2F5E2F5F5F5F5F5F5F5F5F5F5F5F5F5F5F5F5F5F5F5F5F5F5F5F5F5F5F5F5F5F5F5F5F5F5F5F5F5F5F5F5F5F5F5E2E2F5F5F5F5F5F5F5F5F5F5F5F5F5F5F5F5F5F5F5F5F5F5F5F5F5F5F5F5F5F5
310
F5F5F5F5F5F5F5F5F5F5F5F5F5F5F5F5F5F5F5F5F5F5F5F5F5F5F5F5F5F5F5F5F5F5F5F5F5F5F5F5F5F5F5F5F5F5F5F5F5F5F5F5E2F5F5F5F5F5F5F5F5F5F5F5F5F5F5F5F5F5F5F5F5F5F5F5F5F5F5F5F5F5F5F5E2F5F5F5F5F5F5F5F5F5F5F5F5F5E2F5E2E2E2F5E2F5F5F5F5F5F5F5F5F5F5F5F5F5F5F5F5F5F5F5F5F5F5
310
F5F5F5F5F5F5F5F5F5F5F5F5F5F5F5F5F5F5F5F5E2F5F5F5F5F5F5F5F5F5F5F5F5F5F5F5F5F5F5F5F5F5F5F5F5F5F5F5F5F5F5F5F5F5F5F5F5F5F5F5F5F5F5F5F5F5F5F5F5F5F5F5F5F5F5F5F5F5F5F5F5F5F5F5F5F5F5F5F5F5F5F5F5F5F5F5F5F5F5F5F5F5F5F5F5F5E2F5F5F5F5F5F5F5F5F5F5F5F5F5F5F5F5F5F5F5F5
310
F5F5F5F5F5F5F5F5F5F5E2F5F5F5F5F5F5F5F5F5F5F5F5F5E2F5E2E2E2F5E2F5F5F5F5F5F5F5F5F5F5F5F5F5F5F5F5F5F5F5F5F5F5F5F5F5F5F5F5F5F5F5F5F5F5F5F5F5F5F5F5F5F5F5F5F5F5F5F5F5F5F5F5F5F5F5F5F5F5F5F5F5F5F5F5F5F5F5F5F5F5F5F5F5F5F5F5F5F5F5F5F5F5F5F5F5F5F5F5F5F5F5F5F5F5F5F5
310
F5F5F5F5F5F5F5F5F5F5F5F5F5F5F5F5F5F5F5F5F5F5F5F5F5F5F5F5F5F5F5F5F5F5F5F5F5F5F5F5F5F5F5F5F5F5F5F5F5F5F5F5F5F5F5F5F5F5F5F5F5F5F5E2F5F5F5F5F5F5F5F5F5F5F5F5F5E2F5E2E2E2F5E2F5F5F5F5F5F5F5F5F5F5F5F5F5F5F5F5F5F5F5F5F5F5F5F5F5F5F5F5F5F5F5F5F5F5F5F5F5F5F5F5F5F5F5
310
F5F5F5F5F5F5F5F5F5F5F5F5F5F5F5F5F5F5F5F5F5F5F5F5F5F5F5F5F5F5F5F5F5F5F5F5F5F5F5F5F5F5F5F5F5F5F5F5F5F5F5F5F5F5F5F5F5F5F5F5F5F5F5F5F5F5F5F5F5F5F5F5F5F5F5F5F5F5F5F5F5F5F5F5F5F5F5F5F5F5F5F5F5F5F5F5F5F5F5F5F5F5F5F5F5F5F5F5F5F5F5F5F5F5F5F5E2F5F5F5F5F5F5F5F5F5F5
310
F5F5F5E2F5E2E2E2F5E2F5F5F5F5F5F5F5F5F5F5F5F5F5F5F5F5F5F5F5F5F5F5F5F5F5F5F5F5F5F5F5F5F5F5F5F5F5F5F5F5E2F5F5F5F5F5F5F5F5F5F5F5F5F5F5F5F5F5F5F5F5F5F5F5F5F5F5F5F5F5F5F5F5F5F5F5F5F5F5F5F5F5F5F5F5F5F5F5F5F5F5F5F5F5F5F5F5F5F5F5F5F5F5F5F5F5F5F5F5F5F5F5F5F5F5F5F5
310
F5F5F5F5F5F5F5F5F5F5F5F5F5E2F5F5F5F5F5F5F5F5F5F5F5F5F5F5F5F5F5F5F5F5F5F5F5F5F5F5F5F5E2F5F5F5F5F5F5F5F5F5F5F5F5F5E2F5E2E2E2F5E2F5F5F5F5F5F5F5F5F5F5F5F5F5F5F5F5F5F5F5F5F5F5F5F5F5F5F5F5F5F5F5F5F5F5F5F5F5F5F5E2F5F5F5F5F5F5F5F5F5F5F5F5F5F5F5F5F5F5F5F5F5F5F5F5
310
F5F5F5F5F5F5F5F5F5F5F5F5F5F5F5F5F5F5F5F5F5F5F5F5F5F5F5F5F5F5F5F5F5F5F5F5F5F5F5F5F5F5F5F5F5F5F5F5F5F5F5F5F5F5F5F5F5F5F5F5F5F5F5F5F5F5F5E2F5F5F5F5F5F5F5F5F5F5F5F5F5F5F5F5F5F5F5F5F5F5F5F5F5F5F5E2F5F5F5F5F5F5F5F5F5F5F5F5F5E2F5E2E2E2F5E2F5F5F5F5F5F5F5F5F5F5F5
310
F5F5F5F5F5F5F5F5F5F5F5F5F5F5F5F5F5F5F5F5F5F5F5F5F5F5E2E2F5F5F5F5F5F5F5F5F5F5F5F5F5F5F5F5F5F5F5F5F5F5F5F5F5F5F5F5F5F5F5F5F5F5F5F5F5F5F5F5F5F5F5F5F5F5F5F5F5F5F5F5F5F5F5F5F5F5F5F5F5F5F5F5F5F5F5F5F5F5F5F5F5F5F5F5F5F5F5F5F5F5F5F5F5F5F5F5F5F5F5F5F5E2E2F5F5F5F5
310
F5F5F5F5F5F5F5F5F5F5F5F5F5F5F5F5F5F5F5F5F5E2F5F5F5F5F5F5F5F5F5F5F5F5F5E2F5E2E2E2F5E2F5F5F5F5F5F5F5F5F5F5F5F5F5F5F5F5F5F5F5F5F5F5F5F5F5F5F5F5F5F5F5F5F5F5F5F5E2F5F5F5F5F5F5F5F5F5F5F5F5F5F5F5F5F5F5F5F5F5F5F5F5F5F5F5F5F5F5F5F5F5F5F5F5F5F5F5F5F5F5F5F5F5F5F5F5
310
F5F5F5F5F5F5F5F5F5F5F5F5F5F5F5F5F5F5F5F5F5F5F5F5F5F5F5F5F5F5F5F5F5F5F5F5F5F5F5F5F5F5F5F5F5F5F5F5F5E2F5F5F5F5F5F5F5F5F5F5F5F5F5F5F5F5F5F5F5F5F5F5F5F5E2F5F5F5F5F5F5F5F5F5F5F5F5F5E2F5E2E2E2F5E2F5F5F5F5F5F5F5F5F5F5F5F5F5F5F5F5F5F5F5F5F5F5F5F5F5F5F5F5F5F5F5F5
310
F5F5F5E2F5F5F5F5F5F5F5F5F5F5F5F5F5F5F5F5F5F5F5F5F5F5F5F5F5F5F5F5F5F5F5F5F5F5F5F5F5F5F5F5F5F5F5F5F5F5F5F5F5F5F5F5F5F5F5F5F5F5F5F5F5F5F5F5F5F5F5F5F5F5F5F5F5F5F5F5F5F5F5F5F5F5F5F5F5F5F5F5F5F5F5F5F5F5F5F5F5F5F5E2F5F5F5F5F5F5F5F5F5F5F5F5F5F5F5F5F5F5F5F5F5F5F5
310
E2F5F5F5F5F5F5F5F5F5F5F5F5F5E2F5E2E2E2F5E2F5F5F5F5F5F5F5F5F5F5F5F5F5F5F5F5F5F5F5F5F5F5F5F5F5F5F5F5F5F5F5F5F5F5F5F5F5F5F5F5F5F5F5F5F5F5F5F5F5F5F5F5F5F5F5F5F5F5F5F5F5F5F5F5F5F5F5F5F5F5F5F5F5F5F5F5F5F5F5F5F5F5F5F5F5F5F5F5F5F5F5F5F5F5F5F5F5F5F5F5F5F5F5F5F5F5
310
F5F5F5F5F5F5F5F5F5F5F5F5F5F5F5F5F5F5F5F5F5F5F5F5F5F5F5F5F5F5F5F5F5F5F5F5F5F5F5F5F5F5F5F5F5F5F5F5F5F5F5F5F5E2F5F5F5F5F5F5F5F5F5F5F5F5F5E2F5E2E2E2F5E2F5F5F5F5F5F5F5F5F5F5F5F5F5F5F5F5F5F5F5F5F5F5F5F5F5F5F5F5F5F5F5F5F5F5F5F5F5F5F5F5F5F5F5F5F5F5F5F5F5F5F5F5F5
310
F5F5F5F5F5F5F5F5F5F5F5F5F5F5F5F5F5F5F5F5F5F5F5F5F5F5F5F5F5F5F5F5F5F5F5F5F5F5F5F5F5F5F5F5F5F5F5F5F5F5F5F5F5F5F5F5F5F5F5F5F5F5F5F5F5F5F5F5F5F5F5F5F5F5F5F5F5F5F5F5F5F5F5F5F5F5F5F5F5F5F5F5F5F5F5F5F5F5F5F5F5F5F5F5F5F5E2F5F5F5F5F5F5F5F5F5F5F5F5F5E2F5E2E2E2F5E2
310
F5F5F5F5F5F5F5F5F5F5F5F5F5F5F5F5F5F5F5F5F5F5F5F5F5F5F5F5F5F5F5F5F5E2F5F5F5F5F5F5F5F5F5F5F5F5F5F5F5F5F5F5F5F5F5F5F5F5F5F5F5F5F5F5F5F5F5F5F5F5F5F5F5F5F5F5F5F5F5F5F5F5F5F5F5F5F5F5F5F5F5F5F5F5F5F5F5F5F5F5F5F5F5F5F5F5F5F5F5F5F5F5F5F5F5F5F5F5F5F5F5F5F5F5F5F5F5
310
F5F5F5F5F5F5F5F5F5F5F5E2F5F5F5F5F5F5F5F5F5F5F5F5F5F5F5F5F5F5F5F5E2F5F5F5F5F5F5F5F5F5F5F5F5F5E2F5E2E2E2F5E2F5F5F5F5F5F5F5F5F5F5F5F5F5F5F5F5F5F5F5F5F5F5F5F5F5F5F5F5F5F5F5F5E2F5F5F5F5F5F5F5F5F5F5F5F5F5F5F5F5F5F5F5F5F5F5F5F5F5F5F5F5F5F5F5F5F5F5F5F5F5F5F5F5F5
310
F5F5F5F5F5F5F5F5F5F5F5F5F5F5F5F5F5F5F5F5F5F5F5F5F5F5F5F5F5F5F5F5F5F5F5F5F5F5F5F5F5F5F5F5F5F5F5F5F5F5F5F5F5F5F5F5F5F5F5F5F5F5F5F5F5E2F5F5F5F5F5F5F5F5F5F5F5F5F5F5F5F5F5F5F5E2F5F5F5F5F5F5F5F5F5F5F5F5F5E2F5E2E2E2F5E2F5F5F5F5F5F5F5F5F5F5F5F5F5F5F5F5F5F5F5F5F5
310
F5F5F5F5F5F5F5F5F5F5E2F5F5F5F5F5F5F5F5F5F5F5F5F5F5F5F5F5F5F5F5F5F5F5F5F5F5F5F5F5F5F5F5F5F5F5F5F5F5F5F5F5F5F5F5F5F5F5F5F5F5F5F5F5F5F5F5F5F5F5F5F5F5F5F5F5F5F5F5F5F5F5F5F5F5F5F5F5F5F5F5F5F5F5F5F5F5F5F5F5F5F5F5F5F5F5F5F5F5F5F5F5F5F5F5F5F5F5F5E2F5F5F5F5F5F5F5
310
F5F5F5F5F5F5F5F5F5F5F5E2F5F5F5F5F5F5F5F5F5F5F5F5F5E2F5E2E2E2F5E2F5F5F5F5F5F5F5F5F5F5F5F5F5F5F5F5F5F5F5F5F5F5F5F5F5F5F5F5F5F5E2F5F5F5F5F5F5F5F5F5F5F5F5F5F5F5F5F5F5F5F5F5F5F5F5F5F5F5F5F5F5F5F5F5F5F5F5F5F5F5F5F5F5F5F5F5F5F5F5F5F5F5F5F5F5F5F5F5F5F5F5F5F5F5F5
310
F5F5F5F5F5F5F5F5F5F5F5F5F5F5F5F5F5F5F5F5F5F5F5F5F5F5F5F5F5F5F5F5F5F5F5F5F5F5F5F5F5F5F5F5F5E2F5F5F5F5F5F5F5F5F5F5F5F5F5F5F5F5F5F5E2F5F5F5F5F5F5F5F5F5F5F5F5F5E2F5E2E2E2F5E2F5F5F5F5F5F5F5F5F5F5F5F5F5F5F5F5F5F5F5F5F5F5F5F5F5F5F5F5F5E2F5F5F5F5F5F5F5F5F5F5F5F5
310
F5F5F5F5F5F5F5F5F5F5F5F5F5F5F5F5F5F5F5F5F5F5F5F5F5F5F5F5F5F5F5F5F5F5F5F5F5F5F5F5F5F5F5F5F5F5F5F5F5F5F5F5F5F5F5F5F5F5F5F5F5F5F5F5F5F5F5F5F5F5F5F5F5F5F5F5F5F5F5F5F5F5F5F5F5F5F5F5F5F5F5F5F5F5F5F5F5F5F5E2F5F5F5F5F5F5F5F5F5F5F5F5F5F5F5F5F5E2F5F5F5F5F5F5F5F5F5
310
F5F5F5F5E2F5E2E2E2F5E2F5F5F5F5F5F5F5F5F5F5F5F5F5F5F5F5F5F5F5F5F5F5F5F5F5F5F5F5E2F5F5F5F5F5F5F5F5F5F5F5F5F5F5F5F5F5F5F5F5F5F5F5F5F5F5F5F5F5F5F5F5F5F5F5F5F5F5F5F5F5F5F5F5F5F5F5F5F5F5F5F5F5F5F5F5F5F5F5F5F5F5F5F5F5F5F5F5F5F5F5F5F5F5F5F5F5F5F5F5F5F5F5F5F5F5F5
310
F5F5F5F5F5F5F5F5F5F5F5F5F5F5F5F5F5F5F5F5F5F5F5F5F5F5E2F5F5F5F5F5F5F5F5F5F5F5F5F5F5F5F5E2F5F5F5F5F5F5F5F5F5F5F5F5F5E2F5E2E2E2F5E2F5F5F5F5F5F5F5F5F5F5F5F5F5F5F5F5F5F5F5F5F5F5F5F5F5F5F5F5F5F5F5F5F5F5F5F5F5F5F5F5F5F5F5F5F5F5F5F5F5F5F5F5F5F5F5F5F5F5F5F5F5F5F5
310
F5F5F5F5F5F5F5F5F5F5F5F5F5F5F5F5F5F5F5F5F5F5F5F5F5F5F5F5F5F5F5F5F5F5F5F5F5F5F5F5F5F5F5F5F5F5F5F5F5F5F5F5F5F5F5F5F5F5F5F5F5F5F5F5F5F5F5F5F5F5F5F5F5F5F5F5F5F5F5F5F5F5F5F5F5F5F5F5F5F5F5F5F5F5F5F5E2F5F5F5F5F5F5F5F5F5F5F5F5F5E2F5E2E2E2F5E2F5F5F5F5F5F5F5F5F5F5
310
F5F5F5F5F5F5F5F5F5F5F5F5F5F5F5F5E2F5F5F5F5F5F5F5F5F5F5F5F5F5F5F5F5F5F5F5F5F5F5F5F5F5F5F5E2E2F5F5F5F5F5F5F5F5F5F5F5F5F5F5F5F5F5F5F5F5F5F5F5E2E2F5F5F5F5F5F5F5F5F5E2E2F5F5F5F5F5F5F5F5F5F5F5F5F5F5F5F5F5F5F5F5F5F5F5F5E2E2F5F5F5F5F5F5F5F5F5F5F5F5F5F5F5F5F5F5F5
310
F5F5F5F5F5F5F5F5E2F5F5F5F5F5F5F5F5F5F5F5F5F5E2F5F5F5F5F5F5F5F5F5F5F5F5F5E2F5E2E2E2F5E2F5F5F5F5F5F5F5F5F5F5F5F5F5F5F5F5F5F5F5F5F5F5F5F5F5E2F5F5F5F5F5F5F5F5F5F5F5F5F5F5F5F5F5F5F5F5F5F5F5F5F5F5F5F5E2E2E2E2E2E2E2E2E2E2E2E2E2E2E2E2E2E2E2E2E2E2E2E2E2E2E2E2E2E2
310
E2E2E2E2E2E2E2E2E2E2E2E2E2E2E2E2E2E2E2E2E2E2E2E2E2E2E2E2E2E2E2E2E2E2F5F5F5F5F5F5F5F5F5F5F5F5F5F5F5F5F5F5F5F5F5F5F5F5F5F5F5F5E2F5F5F5F5F5F5F5F5F5F5F5F5E2F5F5F5F5F5F5F5F5F5F5F5F5F5E2F5E2E2E2F5E2F5F5F5F5F5F5F5F5F5F5F5F5F5F5F5F5F5F5F5F5F5F5F5F5E2F5F5F5F5F5F5
310
F5F5F5F5F5F5F5F5F5F5F5F5F5F5F5F5F5F5F5F5F5F5E2F5E2F5F5F5E2F5F5F5E2F5F5F5E2F5F5F5E2F5F5F5E2F5F5F5E2F5F5F5F5F5F5F5F5F5F5F5E2F5F5F5F5F5F5F5F5F5F5F5F5F5F5F5F5F5F5F5F5F5F5F5F5E2F5E2F5F5F5F5F5F5F5F5F5F5F5F5F5F5F5F5F5F5F5F5F5F5F5F5F5F5F5F5E2F5F5F5F5F5F5F5F5F5F5
310
F5E2F5F5F5F5F5F5F5F5F5F5F5F5F5E2F5E2E2E2F5E2F5F5F5F5F5F5F5F5F5F5F5F5F5F5F5F5F5F5F5F5F5F5F5E2F5F5F5F5F5F5F5F5F5F5F5F5F5F5F5F5F5F5F5F5F5F5F5F5F5F5F5F5E2F5F5E2F5F5F5E2F5F5F5E2F5F5F5E2F5F5F5E2F5F5F5E2F5F5F5E2F5F5F5F5F5F5F5F5F5F5F5E2F5F5F5F5F5F5F5F5F5F5F5F5F5
310
F5F5F5F5F5F5F5F5F5F5F5E2F5F5E2F5F5F5F5F5F5F5F5F5F5F5F5F5F5F5F5F5F5F5F5F5F5F5F5F5F5F5F5E2F5F5F5F5F5F5F5F5F5F5E2F5F5F5F5F5F5F5F5F5F5F5F5F5E2F5E2E2E2F5E2F5F5F5F5F5F5F5F5F5F5F5F5F5F5F5F5F5F5F5F5F5F5F5E2F5F5F5F5F5F5F5F5F5F5F5F5F5F5F5F5F5F5F5F5F5F5F5F5F5F5F5E2
310
F5F5F5E2F5F5F5E2F5F5F5E2F5F5F5E2F5F5F5E2F5F5F5E2F5F5F5E2F5F5F5F5F5F5F5F5F5F5F5E2E2E2E2E2E2E2E2E2E2E2E2E2E2E2E2E2E2E2E2E2E2E2E2E2E2F5F5F5E2F5F5F5F5F5F5F5F5F5F5F5F5F5F5F5F5F5F5F5F5F5F5F5F5F5F5F5E2F5F5F5F5F5F5F5F5F5F5E2F5F5F5F5F5F5F5F5F5F5F5F5F5E2F5E2E2E2F5
310
E2F5F5F5F5F5F5F5F5F5F5F5F5F5F5F5F5F5F5F5F5F5F5F5E2F5F5F5F5F5F5F5F5F5F5F5F5F5F5F5F5F5F5F5F5F5F5F5F5F5F5E2F5F5F5F5E2E2E2E2E2E2E2E2E2E2E2E2E2E2E2E2E2E2E2E2E2E2E2E2E2F5F5F5F5F5F5F5F5F5F5F5E2F5F5F5E2E2F5F5E2E2F5F5E2E2F5F5E2E2F5F5F5E2F5F5F5E2F5F5F5F5E2F5F5F5F5
310
F5F5F5F5F5F5F5F5F5F5F5F5F5F5F5F5F5F5F5F5F5F5E2F5F5F5F5F5F5F5F5F5F5E2F5F5F5F5F5F5F5F5F5F5F5F5F5E2F5E2E2E2F5E2F5F5F5F5F5F5F5F5F5F5F5F5F5F5F5F5F5F5F5F5F5F5F5E2F5F5F5F5F5F5F5F5F5F5F5F5F5F5F5F5F5F5F5F5F5F5F5F5E2E2F5F5F5F5F5E2F5F5F5E2F5F5F5E2F5F5F5E2F5F5F5E2F5
310
F5F5E2F5F5F5E2F5F5F5F5F5F5F5F5F5F5F5E2F5F5F5E2E2F5F5E2E2F5F5E2E2F5F5E2E2F5F5F5E2F5F5F5E2F5F5F5F5F5E2F5F5F5F5F5F5F5F5F5F5F5F5F5F5F5F5F5F5F5F5F5F5F5F5F5E2F5F5F5F5F5F5F5F5F5F5E2F5F5F5F5F5F5F5F5F5F5F5F5F5E2F5E2E2E2F5E2F5F5F5F5F5F5F5F5F5F5F5F5F5F5F5F5F5F5F5F5
310
F5F5F5E2F5F5F5F5F5F5F5F5F5F5F5F5F5F5F5F5F5F5F5F5F5F5F5E2F5F5F5F5F5F5F5E2F5F5F5E2F5F5F5E2F5F5F5E2F5F5F5E2F5F5F5E2F5F5F5E2F5F5F5F5F5F5F5F5F5F5F5E2F5F5F5E2E2F5F5E2E2F5F5E2E2F5F5E2E2F5F5F5E2F5F5F5E2F5F5F5F5F5F5E2F5F5F5F5F5F5F5F5F5F5F5F5F5F5F5F5F5F5F5F5F5F5F5
310
F5E2F5F5F5F5F5F5F5F5F5F5E2F5F5F5F5F5F5F5F5F5F5F5F5F5E2F5E2E2E2F5E2F5F5F5F5F5F5F5F5F5F5F5F5F5F5F5F5F5F5F5F5F5F5F5E2F5F5F5F5F5F5F5F5F5F5F5F5F5F5F5F5F5F5F5F5F5F5E2F5F5F5F5F5F5F5F5E2E2E2E2E2E2E2E2E2E2E2E2E2E2E2E2E2E2E2E2E2E2E2E2E2F5F5F5F5F5F5F5F5F5F5F5E2E2E2
310
E2E2E2E2E2E2E2E2E2E2E2E2E2E2E2E2E2E2E2E2E2E2E2F5F5F5F5F5F5F5E2F5F5F5F5F5F5F5F5F5F5F5F5F5F5F5F5F5F5F5F5F5F5F5E2F5F5F5F5F5F5F5F5F5F5E2F5F5F5F5F5F5F5F5F5F5F5F5F5E2F5E2E2E2F5E2F5F5F5F5F5F5F5F5F5F5F5F5F5F5F5F5F5F5F5F5F5F5F5F5F5F5F5F5F5F5F5F5F5F5F5F5F5F5F5F5F5
310
F5F5F5F5E2F5F5F5F5F5F5F5F5F5E2F5F5F5E2F5F5F5E2F5F5F5E2F5F5F5E2F5F5F5E2F5F5F5E2F5F5F5F5F5F5F5F5F5F5F5E2F5F5F5F5F5F5F5F5F5F5F5F5F5F5F5F5F5F5F5F5F5F5F5F5E2F5F5F5F5F5F5F5F5E2F5F5F5F5F5F5F5F5F5F5F5F5F5F5F5F5F5F5F5F5F5F5F5F5F5F5F5F5F5F5F5F5F5E2F5F5F5F5F5F5F5F5
310
F5F5F5F5F5E2F5E2E2E2F5E2F5F5F5F5F5F5F5F5F5F5F5F5F5F5F5F5F5F5F5F5F5F5F5F5F5F5F5F5F5F5F5F5F5F5F5F5F5F5F5F5F5F5F5F5E2F5F5F5F5F5F5F5F5F5F5E2F5F5F5E2F5F5F5E2F5F5F5E2F5F5F5E2F5F5F5E2F5F5F5E2F5F5F5F5F5F5F5F5F5F5F5E2F5F5F5F5F5F5F5F5F5F5F5F5F5F5F5F5F5F5F5F5F5F5F5
310
F5E2F5F5F5F5F5F5F5F5F5E2F5F5F5F5F5F5F5F5F5F5F5F5F5F5F5F5F5F5F5F5F5F5F5F5F5F5F5F5F5F5F5F5E2F5F5F5F5F5F5F5F5F5F5F5F5F5E2F5E2E2E2F5E2F5F5F5F5F5F5F5F5F5F5F5F5F5F5F5F5F5F5F5F5F5F5F5E2F5F5F5F5F5F5F5F5F5F5F5F5F5F5F5F5F5F5F5E2F5F5F5F5F5F5F5F5F5F5F5E2F5F5F5E2F5F5
310
F5E2F5F5F5E2F5F5F5E2F5F5F5E2F5F5F5E2F5F5F5F5F5F5F5F5F5F5F5E2F5F5F5F5F5F5F5F5F5F5F5F5F5F5F5F5F5F5F5F5F5F5F5F5E2F5F5F5F5F5F5F5F5F5F5E2F5F5F5F5F5F5F5F5F5F5F5F5F5F5F5F5F5F5F5F5E2F5F5F5F5F5F5F5F5F5F5E2F5F5F5F5F5F5F5F5F5F5F5F5F5E2F5E2E2E2F5E2F5F5F5F5F5F5F5F5F5
310
F5F5F5F5F5F5F5F5F5F5F5F5F5F5E2F5F5F5F5F5F5F5F5F5F5F5F5F5F5F5F5F5F5F5E2E2E2E2E2E2E2E2E2E2E2E2E2E2E2E2E2E2E2E2E2E2E2E2E2E2E2E2E2E2E2E2E2E2E2E2E2E2E2E2E2E2E2E2E2E2E2E2E2E2E2E2E2E2E2E2E2E2E2E2E2E2E2E2E2E2E2E2E2E2E2E2E2E2E2E2E2E2E2E2E2E2E2E2E2E2F5F5F5F5F5F5F5
310
F5F5F5F5F5F5F5F5F5F5F5F5E2F5F5F5F5F5F5F5F5F5F5E2F5F5F5F5F5F5F5F5F5F5F5F5F5E2F5E2E2E2F5E2F5F5F5F5F5F5F5F5F5F5F5F5F5F5F5F5F5F5F5F5F5F5F5E2F5F5F5F5F5F5F5F5F5F5F5F5F5F5F5F5F5F5F5E2E2F5F5E2E2E2E2F5F5F5E2E2F5F5F5F5F5F5F5F5F5F5F5F5F5F5F5F5F5F5F5F5F5F5F5E2E2E2E2
310
E2E2E2E2E2E2E2E2E2F5F5F5F5F5F5F5F5F5F5F5F5F5F5F5F5F5F5F5F5F5F5F5F5E2E2E2F5F5F5E2F5F5E2F5E2E2F5F5F5F5F5F5F5F5F5F5F5F5F5F5F5F5F5F5F5E2F5F5F5F5F5F5F5F5F5F5E2F5F5F5F5F5F5F5F5F5F5F5F5F5E2F5E2E2E2F5E2F5F5F5F5F5F5F5F5F5F5F5F5F5F5F5F5F5F5F5F5F5F5F5E2F5F5F5F5F5F5
310
F5F5F5F5F5F5F5F5F5F5F5F5F5E2F5F5F5E2F5F5E2F5F5F5E2E2F5F5F5F5F5F5F5F5F5F5F5F5F5F5F5F5F5F5F5F5F5F5F5F5F5E2F5F5F5F5F5F5F5E2F5F5F5F5F5F5F5F5F5F5F5F5F5F5F5F5F5F5F5F5F5F5F5F5F5F5E2F5E2F5F5F5E2F5F5E2F5E2F5F5F5F5F5F5F5F5F5F5F5F5F5F5F5F5F5F5F5F5E2F5F5F5F5F5F5F5F5
310
F5F5E2F5F5F5F5F5F5F5F5F5F5F5F5F5E2F5E2E2E2F5E2F5F5F5F5F5F5F5F5F5F5F5F5F5F5F5F5F5F5F5F5F5F5F5E2F5F5F5F5F5F5F5F5F5F5F5F5F5F5F5F5F5F5F5E2F5F5F5E2F5F5E2F5F5F5E2E2F5F5F5F5F5F5F5F5F5F5F5F5F5F5F5F5F5F5F5F5F5F5F5F5F5E2F5F5F5F5F5F5F5E2F5F5F5F5F5F5F5F5F5F5F5F5F5F5
310
F5F5F5F5F5F5F5F5F5F5F5F5E2F5E2F5F5F5E2F5F5E2F5E2F5F5F5F5F5F5F5F5F5F5F5F5F5F5F5F5F5F5F5F5E2F5F5F5F5F5F5F5F5F5F5E2F5F5F5F5F5F5F5F5F5F5F5F5F5E2F5E2E2E2F5E2F5F5F5F5F5F5F5F5F5F5F5F5F5F5F5F5F5F5F5F5F5F5F5E2F5F5F5F5F5F5F5F5F5F5F5F5F5F5F5F5F5F5F5E2F5F5F5E2F5F5E2
310
F5F5F5E2E2F5F5F5F5F5F5F5F5F5F5F5F5F5F5F5F5F5F5F5F5F5F5F5F5F5E2F5F5F5F5F5F5F5E2F5F5F5F5F5F5F5F5F5F5F5F5F5F5F5F5F5F5F5F5F5F5F5F5F5F5E2F5E2F5F5F5E2F5F5E2F5E2F5F5F5F5F5F5F5F5F5F5F5F5F5F5F5F5F5F5F5F5E2F5F5F5F5F5F5F5F5F5F5E2F5F5F5F5F5F5F5F5F5F5F5F5F5E2F5E2E2E2
310
F5E2F5F5F5F5F5F5F5F5F5F5F5F5F5F5F5F5F5F5F5F5F5F5F5E2F5F5F5F5F5F5F5F5F5F5F5F5F5F5F5F5F5F5F5E2E2E2E2E2F5F5E2E2E2E2E2E2F5F5F5F5F5F5F5F5F5F5F5F5F5F5F5F5F5F5F5F5F5F5F5F5F5E2F5F5F5F5F5F5F5E2F5F5F5F5F5F5F5F5F5F5F5F5F5F5F5F5F5F5F5F5F5F5F5F5F5F5E2E2E2E2E2E2E2E2E2
310
E2E2E2F5F5F5F5F5F5F5F5F5F5F5F5F5F5F5F5F5F5F5F5E2F5F5F5F5F5F5F5F5F5F5E2F5F5F5F5F5F5F5F5F5F5F5F5F5E2F5E2E2E2F5E2F5F5F5F5F5F5F5F5F5F5F5F5F5F5F5F5F5F5F5F5F5F5F5E2F5F5F5F5F5F5F5F5F5F5F5F5F5F5F5F5F5F5F5E2F5F5F5E2F5F5E2F5F5F5E2E2F5F5F5F5F5F5F5F5F5F5F5F5F5F5F5F5
310
F5F5F5F5F5F5F5F5F5E2F5F5F5F5F5F5F5E2F5F5F5F5F5F5F5F5F5F5F5F5F5F5F5F5F5F5F5F5F5F5F5F5F5F5E2F5E2F5F5F5E2F5F5E2F5E2F5F5F5F5F5F5F5F5F5F5F5F5F5F5F5F5F5F5F5F5E2F5F5F5F5F5F5F5F5F5F5E2F5F5F5F5F5F5F5F5F5F5F5F5F5E2F5E2E2E2F5E2F5F5F5F5F5F5F5F5F5F5F5F5F5F5F5F5F5F5F5
310
F5F5F5F5F5F5F5F5F5F5F5F5F5F5F5F5F5F5F5F5F5F5F5F5E2F5F5F5E2F5F5E2F5F5F5E2E2F5F5F5F5F5F5F5F5F5F5F5F5F5F5F5F5F5F5F5F5F5F5F5F5F5E2F5F5F5F5F5F5F5E2F5F5F5F5F5F5F5F5F5F5F5F5F5F5F5F5F5F5F5F5F5F5F5F5F5F5E2F5E2F5F5F5E2F5F5E2F5E2F5F5F5F5F5F5F5F5F5F5F5F5F5F5F5F5F5F5
310
F5F5F5F5F5F5F5F5F5F5F5F5F5E2F5F5F5F5F5F5F5F5F5F5F5F5F5E2F5E2E2E2F5E2F5F5F5F5F5F5F5F5F5F5F5F5F5F5F5F5F5F5F5F5F5F5F5F5F5F5F5F5F5F5F5F5F5F5F5F5F5F5F5F5F5F5F5E2F5F5F5E2F5F5E2F5F5F5E2E2F5F5F5F5F5F5F5F5F5F5F5F5F5F5F5F5F5F5F5F5F5F5F5F5F5E2F5F5F5F5F5F5F5E2F5F5F5
310
F5F5F5F5F5F5F5F5F5F5F5F5F5F5F5F5F5F5F5F5F5F5F5E2F5E2F5F5F5E2F5F5E2F5E2F5F5F5F5F5F5F5F5F5F5F5F5F5F5F5F5F5F5F5F5F5F5F5F5F5F5F5F5F5F5F5E2F5F5F5F5F5F5F5F5F5F5F5F5F5E2F5E2E2E2F5E2F5F5F5F5F5F5F5F5F5F5F5F5F5F5F5F5F5F5F5F5F5F5F5E2F5F5F5F5F5F5F5F5F5F5F5F5F5F5F5F5
310
F5F5F5E2E2E2E2E2F5F5E2E2E2E2E2E2F5F5F5F5F5F5F5F5F5F5F5F5F5F5F5F5F5F5F5F5F5F5F5F5F5E2F5F5F5F5F5F5F5E2F5F5F5F5F5F5F5F5F5F5F5F5F5F5F5F5F5F5F5F5F5F5F5F5F5F5E2E2E2E2E2E2E2E2E2E2E2E2F5F5F5F5F5F5F5F5F5F5F5F5F5F5F5F5F5F5F5F5E2F5F5F5F5F5F5F5F5F5F5E2F5F5F5F5F5F5F5
310
F5F5F5F5F5F5E2F5E2E2E2F5E2F5F5F5F5F5F5F5F5F5F5F5F5F5F5F5F5F5F5F5F5F5F5F5E2F5F5F5F5F5F5F5F5F5F5F5F5F5F5F5F5F5F5F5E2F5F5F5E2F5F5E2F5F5F5E2E2F5F5F5F5F5F5F5F5F5F5F5F5F5F5F5F5F5F5F5F5F5F5F5F5F5E2F5F5F5F5F5F5F5E2F5F5F5F5F5F5F5F5F5F5F5F5F5F5F5F5F5F5F5F5F5F5F5F5
310
F5F5E2F5E2F5F5F5E2F5F5E2F5E2F5F5F5F5F5F5F5F5F5F5F5F5F5F5F5F5F5F5F5F5E2F5F5F5F5F5E2E2E2E2F5E2F5F5F5F5F5F5F5F5F5F5F5F5F5E2F5E2E2E2F5E2F5F5F5F5F5F5F5F5F5F5F5F5F5F5F5F5F5F5F5F5F5F5F5E2F5F5F5F5F5F5F5F5F5F5F5F5F5F5F5F5F5F5F5E2F5F5F5E2F5F5E2F5F5F5E2E2F5F5F5F5F5
310
F5F5F5F5F5F5F5F5F5F5F5F5F5F5F5F5F5F5F5F5E2F5F5F5F5F5F5F5E2F5F5F5F5F5F5F5F5F5F5F5F5F5F5F5F5F5F5F5F5F5F5F5F5F5F5E2F5E2F5F5F5E2F5F5E2F5E2F5F5F5F5F5F5F5F5F5F5F5F5F5F5F5F5F5F5F5F5E2F5F5F5F5F5E2E2E2E2F5E2F5F5F5F5F5F5F5F5F5F5F5F5F5E2F5E2E2E2F5E2F5F5F5F5F5F5F5F5
310
F5F5F5F5F5F5F5F5F5F5F5F5F5F5F5E2F5F5F5F5F5F5F5F5F5F5F5F5F5F5F5F5F5F5F5E2F5F5F5E2F5F5E2F5F5F5E2E2F5F5F5F5F5F5F5F5F5F5F5F5F5F5F5F5F5F5F5F5F5F5F5F5F5E2F5F5F5F5F5F5F5E2F5F5F5F5F5F5F5F5F5F5F5F5F5F5F5F5F5F5F5F5F5F5F5F5F5F5E2F5E2F5F5F5E2F5F5E2F5E2F5F5F5F5F5F5F5
310
F5F5F5F5F5F5F5F5F5F5F5F5F5E2F5F5F5F5F5E2E2E2E2F5E2F5F5F5F5F5F5F5F5F5F5F5F5F5E2F5E2E2E2F5E2F5F5F5F5F5F5F5F5F5F5F5F5F5F5F5F5F5F5F5F5F5F5F5E2F5F5F5F5F5F5F5F5F5F5F5F5F5F5F5F5F5F5F5E2E2E2E2E2F5F5E2E2E2E2E2E2F5F5F5F5F5F5F5F5F5F5F5F5F5F5F5F5F5F5F5F5F5F5F5F5F5E2
310
F5F5F5F5F5F5F5E2F5F5F5F5F5F5F5F5F5F5F5F5F5F5F5F5F5F5F5F5F5F5F5F5F5F5E2E2E2E2E2E2E2E2E2E2E2E2F5F5F5F5F5F5F5F5F5F5F5F5F5F5F5F5F5F5F5F5E2F5F5F5F5F5E2E2E2E2F5E2F5F5F5F5F5F5F5F5F5F5F5F5F5E2F5E2E2E2F5E2F5F5F5F5F5F5F5F5F5F5F5F5F5F5F5F5F5F5F5F5F5F5F5E2F5F5F5F5F5
310
F5F5F5F5F5F5F5F5F5F5F5F5F5F5E2F5F5F5E2F5F5E2F5F5F5E2E2F5F5F5F5F5F5F5F5F5F5F5F5F5F5F5F5F5F5F5F5F5F5F5E2E2E2E2E2E2E2E2E2E2E2E2E2F5F5F5F5F5F5F5F5F5F5F5F5F5F5F5F5F5F5F5F5F5F5F5F5E2F5E2F5F5F5E2F5F5E2F5E2F5F5F5F5F5F5F5F5F5F5F5F5F5F5F5F5F5F5F5F5E2F5F5F5F5F5E2E2
310
E2E2F5E2F5F5F5F5F5F5F5F5F5F5F5F5F5E2F5E2E2E2F5E2F5F5F5F5F5F5F5F5F5F5F5F5F5F5F5F5F5F5F5F5F5F5F5E2F5F5F5F5F5F5F5F5F5F5F5F5F5F5F5F5F5F5F5E2F5F5F5E2F5F5E2F5F5F5E2E2F5F5F5F5F5F5F5F5F5F5F5F5F5F5F5F5F5F5F5F5F5F5F5E2E2F5F5F5F5F5F5F5F5F5E2E2F5F5F5F5F5F5F5F5F5F5F5
310
F5F5F5F5F5F5F5F5F5F5F5F5F5E2F5E2F5F5F5E2F5F5E2F5E2F5F5F5F5F5F5F5F5F5F5F5F5F5F5F5F5F5F5F5F5E2F5F5F5F5F5E2E2E2E2F5E2F5F5F5F5F5F5F5F5F5F5F5F5F5E2F5E2E2E2F5E2F5F5F5F5F5F5F5F5F5F5F5F5F5F5F5F5F5F5F5F5F5F5F5E2F5F5F5F5F5F5F5F5F5F5F5F5F5F5F5F5F5F5F5E2F5F5F5E2F5F5
310
E2F5F5F5E2E2F5F5F5F5F5F5F5F5F5F5F5F5F5F5F5F5F5F5F5F5F5F5F5E2F5F5F5F5F5F5F5F5F5F5F5E2F5F5F5F5F5F5F5F5F5F5F5F5F5F5F5F5F5F5F5F5F5F5F5F5E2F5E2F5F5F5E2F5F5E2F5E2F5F5F5F5F5F5F5F5F5F5F5F5F5F5F5F5F5F5F5F5E2F5F5F5F5F5F5F5F5F5F5E2F5F5F5F5F5F5F5F5F5F5F5F5F5E2F5E2E2
310
E2F5E2F5F5F5F5F5F5F5F5F5F5F5F5F5F5F5F5F5F5F5F5F5F5F5F5F5F5F5F5F5F5F5F5F5F5F5F5F5F5F5F5F5F5F5E2E2E2E2E2F5F5E2E2E2E2E2E2F5F5F5F5F5F5F5F5F5F5F5F5F5F5F5F5F5F5F5F5F5F5F5E2F5F5F5F5F5F5F5F5F5F5F5E2F5F5F5F5F5F5F5F5F5F5F5F5F5F5F5F5F5F5F5F5F5F5F5F5E2E2E2E2E2E2E2E2
310
E2E2E2E2F5F5F5F5F5F5F5F5F5F5F5F5F5F5F5F5F5F5F5F5F5F5F5F5F5F5F5F5F5F5F5E2F5F5F5F5F5F5F5F5F5F5F5F5F5E2F5E2E2E2F5E2F5F5F5F5F5F5F5F5F5F5F5F5F5F5F5F5F5F5F5F5F5F5F5F5F5F5F5F5F5F5F5F5F5F5F5F5F5F5F5F5F5F5F5E2F5F5F5E2F5F5E2F5F5F5E2E2F5F5F5F5F5F5F5F5F5F5F5F5F5F5F5
310
F5F5F5F5F5F5F5F5E2F5F5F5F5F5F5F5F5F5F5F5E2F5F5F5F5F5F5F5F5F5F5F5F5F5F5F5F5F5F5F5F5F5F5F5F5E2F5E2F5F5F5E2F5F5E2F5E2F5F5F5F5F5F5F5F5F5F5F5F5F5F5F5F5F5F5F5F5F5F5F5F5F5F5F5F5F5F5F5E2F5F5F5F5F5F5F5F5F5F5F5F5F5E2F5E2E2E2F5E2F5F5F5F5F5F5F5F5F5F5F5F5F5F5F5F5F5F5
310
F5F5F5F5F5E2F5F5F5F5F5F5F5F5F5F5F5F5F5F5F5F5F5F5F5E2F5F5F5E2F5F5E2F5F5F5E2E2F5F5F5F5F5F5F5F5F5F5F5F5F5F5F5F5F5F5F5F5F5F5F5E2F5F5F5F5F5F5F5F5F5F5F5E2F5F5F5F5F5F5F5F5F5F5F5F5F5F5F5F5F5F5F5F5F5F5F5F5E2F5E2F5F5F5E2F5F5E2F5E2F5F5F5F5F5F5F5F5F5F5F5F5F5F5F5F5F5
310
F5F5F5E2F5F5F5F5F5F5F5F5F5F5E2F5F5F5F5F5F5F5F5F5F5F5F5F5E2F5E2E2E2F5E2F5F5F5F5F5F5F5F5F5F5F5F5F5F5F5F5F5F5F5F5F5F5F5E2F5F5F5F5F5F5F5F5F5F5F5F5F5F5F5F5F5F5F5E2F5F5F5E2F5F5E2F5F5F5E2E2F5F5F5F5F5F5F5F5F5F5F5F5F5F5F5F5F5F5F5F5F5F5F5E2F5F5F5F5F5F5F5F5F5F5F5E2
310
F5F5F5F5F5F5F5F5F5F5F5F5F5F5F5F5F5F5F5F5F5F5F5F5E2F5E2F5F5F5E2F5F5E2F5E2F5F5F5F5F5F5F5F5F5F5F5F5F5F5F5F5F5F5F5F5E2F5F5F5F5F5F5F5F5F5F5E2F5F5F5F5F5F5F5F5F5F5F5F5F5E2F5E2E2E2F5E2F5F5F5F5F5F5F5F5F5F5F5F5F5F5F5F5F5F5F5F5F5F5F5E2F5F5F5F5F5F5F5F5F5F5F5F5F5F5F5
310
F5F5F5F5E2E2E2E2E2F5F5E2E2E2E2E2E2F5F5F5F5F5F5F5F5F5F5F5F5F5F5F5F5F5F5F5F5F5F5F5E2F5F5F5F5F5F5F5F5F5F5F5E2F5F5F5F5F5F5F5F5F5F5F5F5F5F5F5F5F5F5F5F5F5F5F5F5E2E2E2E2E2E2E2E2E2E2E2E2F5F5F5F5F5F5F5F5F5F5F5F5F5F5F5F5F5F5F5F5E2F5F5F5F5F5F5F5F5F5F5E2F5F5F5F5F5F5
310
F5F5F5F5F5F5F5E2F5E2E2E2F5E2F5F5F5F5F5F5F5F5F5F5F5F5F5F5F5F5F5F5F5F5F5F5F5E2F5F5F5F5F5F5F5F5F5F5F5F5F5F5F5F5F5F5F5E2F5F5F5E2F5F5E2F5F5F5E2E2F5F5F5F5F5F5F5F5F5F5F5F5F5F5F5F5F5F5F5F5F5F5F5E2F5F5F5F5F5F5F5F5F5F5F5E2F5F5F5F5F5F5F5F5F5F5F5F5F5F5F5F5F5F5F5F5F5
310
F5F5F5E2F5E2F5F5F5E2F5F5E2F5E2F5F5F5F5F5F5F5F5F5F5F5F5F5F5F5F5F5F5F5F5E2F5F5F5F5F5F5F5F5F5F5E2F5F5F5F5F5F5F5F5F5F5F5F5F5E2F5E2E2E2F5E2F5F5F5F5F5F5F5F5F5F5F5F5F5F5F5F5F5F5F5F5F5F5F5E2F5F5F5F5F5F5F5F5F5F5F5F5F5F5F5F5F5F5F5E2F5F5F5E2F5F5E2F5F5F5E2E2F5F5F5F5
310
F5F5F5F5F5F5F5F5F5F5F5F5F5F5F5F5F5F5F5E2F5F5F5F5F5F5F5F5F5F5F5E2F5F5F5F5F5F5F5F5F5F5F5F5F5F5F5F5F5F5F5F5F5F5F5F5E2F5E2F5F5F5E2F5F5E2F5E2F5F5F5F5F5F5F5F5F5F5F5F5F5F5F5F5F5F5F5F5E2F5F5F5F5F5F5F5F5F5F5E2F5F5F5F5F5F5F5F5F5F5F5F5F5E2F5E2E2E2F5E2F5F5F5F5F5F5F5
310
F5F5F5F5F5F5F5F5F5F5F5F5F5F5F5F5E2F5F5F5F5F5F5F5F5F5F5F5F5F5F5F5F5F5F5F5E2F5F5F5E2E2E2E2F5F5F5E2E2F5F5F5F5F5F5F5F5F5F5F5F5F5F5F5F5F5F5F5F5F5F5F5E2F5F5F5F5F5F5F5F5F5F5F5E2F5F5F5F5F5F5F5F5F5F5F5F5F5F5F5F5F5F5F5F5F5F5F5F5E2F5E2F5F5F5E2F5F5E2F5E2F5F5F5F5F5F5
310
F5F5F5F5F5F5F5F5F5F5F5F5F5F5E2F5F5F5F5F5F5F5F5F5F5E2F5F5F5F5F5F5F5F5F5F5F5F5F5E2F5E2E2E2F5E2F5F5F5F5F5F5F5F5F5F5F5F5F5F5F5F5F5F5F5F5F5F5F5E2F5F5F5F5F5F5F5F5F5F5F5F5F5F5F5F5F5F5F5E2E2E2E2E2E2E2E2E2E2E2E2E2F5F5F5F5F5F5F5F5F5F5F5F5F5F5F5F5F5F5F5F5F5F5F5E2E2
310
E2E2E2E2E2E2E2E2E2E2E2F5F5F5F5F5F5F5F5F5F5F5F5F5F5F5F5F5F5F5F5F5F5F5F5E2E2E2E2E2E2E2E2E2E2E2E2E2F5F5F5F5F5F5F5F5F5F5F5F5F5F5F5F5F5F5F5E2F5F5F5F5F5F5F5F5F5F5E2F5F5F5F5F5F5F5F5F5F5F5F5F5E2F5E2E2E2F5E2F5F5F5F5F5F5F5F5F5F5F5F5F5F5F5F5F5F5F5F5F5F5F5E2F5F5F5F5
310
F5F5F5F5F5F5F5F5F5F5F5F5F5F5F5E2E2F5F5F5F5F5F5F5F5F5E2E2F5F5F5F5F5F5F5F5F5F5F5F5F5F5F5F5F5F5F5F5F5F5F5E2E2F5F5F5F5F5F5F5F5F5E2E2F5F5F5F5F5F5F5F5F5F5F5F5F5F5F5F5F5F5F5F5F5F5F5F5E2E2F5F5F5F5F5F5F5F5F5E2E2F5F5F5F5F5F5F5F5F5F5F5F5F5F5F5F5F5F5F5E2F5F5F5F5F5F5
310
F5F5F5F5E2F5F5F5F5F5F5F5F5F5F5F5F5F5E2F5E2E2E2F5E2F5F5F5F5F5F5F5F5F5F5F5F5F5F5F5F5F5F5F5F5F5F5F5F5F5F5F5F5F5F5F5F5F5F5F5F5F5F5F5F5F5F5F5F5E2F5F5F5F5F5F5F5F5F5F5E2F5F5F5F5F5F5F5F5F5F5F5F5F5F5F5F5F5F5F5F5F5F5F5E2F5F5F5F5F5F5F5F5F5F5E2F5F5F5F5F5F5F5F5F5F5E2
310
E2E2F5F5F5F5F5F5F5F5F5F5F5F5E2F5F5F5F5F5F5F5F5F5E2F5F5F5F5F5F5F5F5F5F5F5F5F5F5F5F5F5F5F5F5F5F5F5F5F5F5F5F5F5F5F5F5E2F5F5F5F5F5F5F5F5F5F5F5F5F5E2F5E2E2E2F5E2F5F5F5F5F5F5F5F5F5F5F5F5F5F5F5F5F5F5F5F5F5F5F5F5F5F5F5F5F5F5F5F5F5F5F5F5F5F5F5F5F5F5F5F5F5E2F5F5F5
310
F5F5F5F5F5F5E2F5F5F5F5F5F5F5F5F5F5F5F5F5F5F5F5F5F5F5F5F5F5F5E2F5F5F5F5F5F5F5F5F5E2F5F5F5F5F5F5F5F5F5F5E2F5F5F5E2F5F5F5F5F5F5F5F5F5F5F5E2F5F5F5F5F5F5F5F5E2F5F5F5F5F5F5F5F5F5F5F5F5F5F5F5F5F5F5F5F5F5F5F5F5F5F5F5F5F5F5F5F5F5E2F5F5F5F5F5F5F5F5F5F5F5F5F5E2F5E2
310
E2E2F5E2F5F5F5F5F5F5F5F5F5F5F5F5F5F5F5F5F5F5F5F5F5F5F5F5F5F5F5F5F5F5F5F5F5F5F5F5F5F5F5F5F5F5F5F5F5F5E2F5F5F5F5F5F5F5F5E2F5F5E2E2E2E2E2E2E2F5F5F5F5F5E2E2E2E2E2E2E2F5F5E2F5F5F5F5F5F5F5F5E2F5F5F5F5F5F5F5F5F5F5F5E2F5F5F5E2F5F5F5F5F5F5F5F5F5F5F5E2F5F5F5F5F5F5
310
F5E2F5F5F5F5F5F5F5F5F5F5F5F5F5F5F5F5F5F5F5F5F5F5F5F5F5F5F5F5F5F5F5F5F5F5E2F5F5F5F5F5F5F5F5F5F5F5F5F5E2F5E2E2E2F5E2F5F5F5F5F5F5F5F5F5F5F5F5F5F5F5F5F5F5F5F5F5F5F5E2F5F5F5F5F5F5F5F5F5F5F5F5F5F5F5F5F5F5F5F5F5F5F5E2F5F5F5F5F5F5F5E2F5F5E2F5F5F5F5F5F5E2E2E2E2E2
310
F5F5F5F5F5F5E2F5F5E2F5F5F5F5F5F5F5E2F5F5F5F5F5F5F5E2F5F5F5F5E2F5F5F5E2F5F5F5F5E2F5F5F5F5F5F5E2F5F5F5F5F5F5E2F5F5F5F5F5F5F5F5F5F5F5F5F5F5F5F5F5F5F5F5F5F5F5F5E2F5F5F5F5F5F5F5F5F5F5E2F5F5F5F5F5F5F5F5F5F5F5F5F5E2F5E2E2E2F5E2F5F5F5F5F5F5F5F5F5F5F5F5F5F5F5F5F5
310
F5F5F5F5F5F5E2F5F5F5F5F5F5F5F5F5F5F5F5F5F5F5F5F5F5F5F5F5F5F5F5E2E2F5F5F5F5F5E2F5F5E2F5F5F5F5F5F5F5F5F5F5F5F5F5F5F5F5F5E2F5F5E2F5F5F5F5F5E2E2F5F5F5F5F5F5F5E2F5E2F5F5F5F5E2E2E2F5F5F5F5E2F5E2F5F5F5F5F5E2F5F5F5F5F5E2F5F5F5F5F5F5F5F5F5F5F5F5F5F5F5F5F5F5F5F5F5
310
F5F5F5F5E2F5F5F5F5F5F5F5F5F5F5E2F5F5F5F5F5F5F5F5F5F5F5F5F5E2F5E2E2E2F5E2F5F5F5F5F5F5F5F5F5F5F5F5F5F5F5F5F5F5F5F5F5F5F5E2F5F5F5F5F5F5F5F5F5F5F5F5F5F5F5F5F5F5F5F5F5F5F5F5F5F5E2F5F5F5F5E2F5F5E2F5F5F5F5F5F5F5E2E2E2F5F5F5F5F5F5F5E2F5F5E2F5F5F5F5E2F5F5F5F5F5F5
310
F5F5E2F5F5F5E2F5F5F5F5F5F5F5F5F5E2F5F5F5E2F5F5F5F5E2F5F5F5F5E2F5F5F5F5F5F5F5F5F5F5F5F5F5F5F5F5F5F5F5F5F5F5F5F5F5F5E2F5F5F5F5F5F5F5F5F5F5E2F5F5F5F5F5F5F5F5F5F5F5F5F5E2F5E2E2E2F5E2F5F5F5F5F5F5F5F5F5F5F5F5F5F5F5F5F5F5F5F5F5F5F5E2F5F5F5F5F5F5F5F5F5F5F5F5F5F5
310
F5F5F5F5F5F5F5F5F5F5F5F5F5E2F5F5F5E2F5F5E2E2E2E2E2E2E2E2F5F5F5E2E2E2E2E2E2E2E2F5F5E2F5F5F5E2F5F5F5F5F5F5F5F5E2F5F5F5F5E2F5F5F5F5F5F5F5F5F5E2F5F5F5E2F5F5F5F5E2F5F5F5E2F5F5F5F5F5F5F5F5F5F5F5F5F5F5F5F5F5F5F5F5F5F5F5F5F5F5F5E2F5F5F5F5F5F5F5F5F5F5E2F5F5F5F5F5
310
F5F5F5F5F5F5F5F5E2F5E2E2E2F5E2F5F5F5F5F5F5F5F5F5F5F5F5F5F5F5F5F5F5F5F5F5F5F5E2F5F5F5F5F5F5F5F5F5F5F5F5F5F5F5F5F5F5F5F5F5F5F5F5F5F5F5F5E2F5F5E2F5F5F5F5F5F5F5F5F5F5F5F5F5F5F5F5F5F5F5F5F5F5F5E2F5F5E2F5F5F5F5F5F5F5F5F5F5E2F5F5F5E2F5F5F5F5F5F5F5F5F5E2F5F5F5E2
310
F5F5F5F5E2F5F5E2F5F5F5F5F5F5F5F5F5F5F5F5F5F5F5F5F5F5F5F5F5F5F5F5F5F5F5F5E2F5F5F5F5F5F5F5F5F5F5E2F5F5F5F5F5F5F5F5F5F5F5F5F5E2F5E2E2E2F5E2F5F5F5F5F5F5F5F5F5F5F5F5F5F5F5F5F5F5F5F5F5F5F5F5E2F5F5F5F5F5F5F5F5F5F5F5F5F5F5F5F5F5F5F5F5F5F5F5F5F5F5F5F5E2F5E2F5F5F5
310
F5F5F5F5F5F5F5F5F5F5F5F5F5F5F5F5F5F5F5F5E2F5E2F5F5F5F5F5F5F5F5F5F5F5F5E2E2E2F5F5F5F5F5F5F5F5F5F5F5E2E2E2F5F5F5F5F5E2F5E2F5F5F5F5F5F5F5F5F5F5F5F5F5F5F5F5F5F5F5F5F5F5F5F5F5F5F5F5E2F5F5F5F5F5F5F5F5F5F5F5E2F5F5F5F5F5F5F5F5F5F5F5F5F5E2F5E2E2E2F5E2F5F5F5F5F5F5
310
F5F5F5F5F5F5F5F5F5F5F5F5F5F5F5F5F5F5F5E2F5F5F5F5F5F5F5F5F5F5F5F5F5F5F5F5F5F5F5F5F5F5F5F5F5F5F5F5E2E2F5F5F5F5F5F5F5F5F5F5F5F5F5F5F5F5F5F5F5F5F5F5F5E2E2F5F5F5F5F5F5F5F5F5F5F5F5F5F5F5F5F5F5F5F5F5F5F5F5F5F5F5F5F5F5F5F5F5F5F5E2E2F5F5F5F5F5F5F5F5F5F5F5F5F5F5F5
310
F5F5F5F5F5F5F5F5F5F5F5F5F5E2F5F5F5F5F5F5F5F5F5F5F5F5E2F5F5F5F5F5F5F5F5F5F5F5F5F5E2F5E2E2E2F5E2F5F5F5F5F5F5F5F5F5F5F5F5F5F5F5F5F5F5F5F5F5F5F5F5F5F5E2F5F5F5F5F5F5F5F5F5F5F5F5F5F5F5F5F5F5F5F5F5F5F5F5F5F5F5E2E2F5F5F5F5F5F5F5F5F5F5F5F5F5F5F5F5F5F5F5F5F5F5F5E2
310
E2F5F5F5F5F5F5F5F5F5F5F5F5F5F5F5F5F5F5F5F5F5F5F5F5F5F5F5F5F5F5F5F5F5F5F5E2E2F5F5F5F5F5F5F5F5F5F5F5F5F5F5F5F5F5F5F5F5F5F5F5F5F5F5F5E2F5F5F5F5F5F5F5F5F5F5F5F5F5E2F5F5F5F5F5F5F5F5F5F5F5F5F5E2F5E2E2E2F5E2F5F5F5F5F5F5F5F5F5F5F5F5F5F5F5F5F5F5F5F5F5F5F5F5F5F5F5
310
F5F5F5F5F5F5F5F5F5F5F5F5F5F5F5F5F5F5F5F5F5F5F5F5F5F5F5F5F5F5F5F5F5F5F5F5F5F5F5F5F5F5F5F5F5F5F5F5F5F5F5F5F5F5F5F5F5F5F5F5F5F5F5F5F5F5F5F5F5F5F5F5F5F5F5F5F5F5F5F5F5F5F5F5F5F5F5F5F5F5F5F5F5F5F5F5F5F5F5F5F5F5F5F5F5F5F5F5F5F5F5F5F5F5F5F5F5F5F5F5F5F5F5F5F5F5F5
310
F5F5F5F5F5E2F5F5F5F5F5F5F5F5F5F5F5F5F5E2F5E2E2E2F5E2F5F5F5F5F5F5F5F5F5F5F5F5F5F5F5F5F5F5F5F5F5F5F5F5F5F5F5F5F5F5F5F5F5F5F5F5F5F5F5F5F5F5F5F5F5F5F5F5F5F5F5F5F5F5F5F5F5F5F5F5F5F5F5F5F5F5F5F5F5F5F5F5F5F5F5F5F5F5F5F5F5F5F5F5F5F5F5F5F5F5F5F5F5F5F5F5F5F5F5F5F5
310
F5F5F5F5F5F5F5F5F5F5F5F5F5F5F5F5F5F5F5F5F5F5F5F5F5F5F5F5F5F5F5F5F5F5F5F5F5F5F5F5F5F5F5F5F5F5F5F5F5F5F5F5F5F5F5F5F5F5E2F5F5F5F5F5F5F5F5F5F5F5F5F5E2F5E2E2E2F5E2F5F5F5F5F5F5F5F5F5F5F5F5F5F5F5F5F5F5F5F5F5F5F5F5F5F5F5F5E2F5F5F5F5F5F5F5F5F5F5F5F5F5F5F5F5F5F5F5
310
F5F5F5F5F5F5F5F5F5F5F5F5F5F5F5F5F5F5F5F5F5F5F5F5F5F5F5F5F5F5F5F5F5F5F5F5F5F5F5F5F5F5F5F5F5F5F5F5F5F5F5F5F5F5F5F5F5F5F5F5F5F5F5F5F5F5F5F5F5F5F5F5F5F5F5F5F5F5F5F5F5F5F5F5F5F5F5F5F5F5F5F5F5F5E2F5F5F5F5F5F5F5F5F5F5F5F5F5F5F5F5E2F5F5F5F5F5F5F5F5F5F5F5F5F5E2F5
310
E2E2E2F5E2F5F5F5F5F5F5F5F5F5F5F5F5F5F5F5F5F5F5F5F5F5F5F5F5F5F5F5F5F5E2F5F5F5F5F5F5F5F5F5F5F5F5F5F5F5F5F5F5F5F5F5F5F5F5F5F5F5F5F5F5F5F5F5F5F5F5F5F5F5F5F5F5F5F5F5F5F5F5F5F5F5F5F5F5F5F5F5F5F5F5F5F5F5F5F5F5F5F5F5F5F5F5F5F5F5F5F5F5F5F5F5F5F5F5F5F5F5F5F5F5F5F5
310
F5F5F5F5F5F5F5F5F5F5F5F5F5F5F5F5F5F5F5E2F5F5F5F5F5F5F5F5F5F5F5F5F5F5F5F5F5E2F5F5F5F5F5F5F5F5F5F5F5F5F5E2F5E2E2E2F5E2F5F5F5F5F5F5F5F5F5F5F5F5F5F5F5F5F5F5F5F5F5F5F5F5F5F5F5F5F5F5E2F5F5F5F5F5F5F5F5F5F5F5F5F5F5F5F5F5F5F5F5F5F5F5F5F5F5F5F5F5F5F5F5F5F5F5F5F5F5
310
F5F5F5F5F5F5F5F5F5F5F5F5F5F5F5F5F5F5F5F5F5F5F5F5F5F5F5F5F5F5F5F5F5F5F5F5F5F5F5F5F5F5F5F5F5F5F5F5F5F5F5F5F5F5F5F5F5F5F5F5F5F5F5F5F5F5F5F5F5F5F5E2F5F5F5F5F5F5F5F5F5F5F5F5F5F5F5F5F5F5E2F5F5F5F5F5F5F5F5F5F5F5F5F5E2F5E2E2E2F5E2F5F5F5F5F5F5F5F5F5F5F5F5F5F5F5F5
310
F5F5F5F5F5F5F5F5F5F5F5F5F5F5F5E2F5F5F5F5F5F5F5F5F5F5F5F5F5F5F5F5F5F5F5F5F5F5F5F5F5F5F5F5F5F5F5F5F5F5F5F5F5F5F5F5F5F5F5F5F5F5F5F5F5F5F5F5F5F5F5F5F5F5F5F5F5F5F5F5F5F5F5F5F5F5F5F5F5F5F5F5F5F5F5F5F5F5F5F5F5F5F5F5F5F5F5F5F5F5F5F5F5F5F5F5F5F5F5F5F5F5F5F5E2F5F5
310
F5F5F5F5F5F5F5F5F5F5F5F5F5F5F5F5E2F5F5F5F5F5F5F5F5F5F5F5F5F5E2F5E2E2E2F5E2F5F5F5F5F5F5F5F5F5F5F5F5F5F5F5F5F5F5F5F5F5F5F5F5F5F5F5F5F5F5F5F5E2F5F5F5F5F5F5F5F5F5F5F5F5F5F5F5F5F5F5F5F5F5F5F5F5F5F5F5F5F5F5F5F5F5F5F5F5F5F5F5F5F5F5F5F5F5F5F5F5F5F5F5F5F5F5F5F5F5
310
F5F5F5F5F5F5F5F5F5F5F5F5F5F5F5F5F5F5F5F5F5F5F5F5F5F5F5F5F5F5F5F5F5F5F5F5F5F5F5F5F5F5F5F5F5F5F5F5F5E2F5F5F5F5F5F5F5F5F5F5F5F5F5F5F5F5F5F5F5E2F5F5F5F5F5F5F5F5F5F5F5F5F5E2F5E2E2E2F5E2F5F5F5F5F5F5F5F5F5F5F5F5F5F5F5F5F5F5F5F5F5F5F5F5F5F5F5F5F5F5F5F5F5E2F5F5F5
310
F5F5F5F5F5F5F5F5F5F5F5F5F5F5F5F5F5F5F5F5F5F5F5F5F5F5F5F5F5F5F5F5F5F5F5F5F5F5F5F5F5F5F5F5F5F5F5F5F5F5F5F5F5F5F5F5F5F5F5F5F5F5F5F5F5F5F5F5F5F5F5F5F5F5F5F5F5F5F5F5F5F5F5F5F5F5F5F5F5F5F5F5F5F5F5F5F5F5F5F5F5E2F5F5F5F5F5F5F5F5F5F5F5F5F5F5F5F5F5F5F5F5E2F5F5F5F5
310
F5F5F5F5F5F5F5F5F5E2F5E2E2E2F5E2F5F5F5F5F5F5F5F5F5F5F5F5F5F5F5F5F5F5F5F5F5F5F5F5F5F5F5F5F5F5F5F5F5F5F5F5F5F5F5F5F5F5F5F5F5F5F5F5F5F5F5F5F5F5F5F5F5F5F5F5F5F5F5F5F5F5F5F5F5F5F5F5F5F5F5F5F5F5F5F5F5F5F5F5F5F5F5F5F5F5F5F5F5F5F5F5F5F5F5F5F5F5F5F5F5F5F5F5F5F5F5
310
F5F5F5F5F5F5F5F5F5F5F5F5F5F5F5F5F5F5F5F5F5F5F5F5F5F5F5F5F5F5F5F5F5F5F5F5F5F5F5F5F5F5F5F5F5F5F5F5E2F5F5F5F5F5F5F5F5F5F5F5F5F5E2F5E2E2E2F5E2F5F5F5F5F5F5F5F5F5F5F5F5F5F5F5F5F5F5F5F5F5F5F5F5F5F5F5F5F5F5F5F5F5F5F5E2F5F5F5F5F5F5F5F5F5F5F5F5F5F5F5F5F5F5F5F5F5F5
310
F5F5F5F5F5F5F5F5F5F5F5F5F5F5F5F5F5F5F5F5F5F5F5F5F5F5F5F5F5F5F5F5F5F5F5F5F5F5F5F5F5F5F5F5F5F5F5F5F5F5F5F5F5F5F5F5F5F5F5F5F5F5F5F5F5F5F5F5F5F5F5F5F5F5F5F5F5E2F5F5F5F5F5F5F5F5F5F5F5F5F5F5F5F5F5F5F5F5F5F5F5E2F5F5F5F5F5F5F5F5F5F5F5F5F5E2F5E2E2E2F5E2F5F5F5F5F5
310
F5F5F5F5F5F5F5F5F5F5F5F5F5F5F5F5F5F5F5F5F5F5F5F5F5F5F5F5F5F5F5E2F5F5F5F5F5F5F5F5F5F5F5F5F5F5F5F5F5F5F5F5F5F5F5F5F5F5F5F5F5F5F5F5F5F5F5F5F5F5F5F5F5F5F5F5F5F5F5F5F5F5F5F5F5F5F5F5F5F5F5F5F5F5F5F5F5F5F5F5F5F5F5F5F5F5F5F5F5F5F5F5F5F5F5F5F5F5F5F5F5F5F5F5F5F5F5
310
F5F5E2F5F5F5F5F5F5F5F5F5F5F5F5F5F5F5F5F5F5F5F5F5F5F5F5E2F5F5F5F5F5F5F5F5F5F5F5F5F5E2F5E2E2E2F5E2F5F5F5F5F5F5F5F5F5F5F5F5F5F5F5F5F5F5F5F5F5F5F5F5F5F5F5F5F5F5F5F5F5F5F5F5F5E2F5F5F5F5F5F5F5F5F5F5F5F5F5F5F5F5F5F5F5F5F5F5F5F5F5F5F5F5F5F5F5F5F5F5F5F5F5F5F5F5F5
310
F5F5F5F5F5F5F5F5F5F5F5F5F5F5F5F5F5F5F5F5F5F5F5F5F5F5F5F5F5F5F5F5F5F5F5F5F5F5F5F5F5F5F5F5F5F5F5F5F5F5F5F5F5F5E2F5F5F5F5F5F5F5F5F5F5F5F5F5F5F5F5F5F5F5F5F5F5F5F5F5E2F5F5F5F5F5F5F5F5F5F5F5F5F5E2F5E2E2E2F5E2F5F5F5F5F5F5F5F5F5F5F5F5F5F5F5F5F5F5F5F5F5F5F5F5F5F5
310
F5F5F5F5F5F5F5F5F5F5F5F5E2F5F5F5F5F5F5F5F5F5F5F5F5F5F5F5F5F5F5F5F5F5F5F5F5F5F5F5F5F5F5F5F5F5F5F5F5F5F5F5F5F5F5F5F5F5F5F5F5F5F5F5F5F5F5F5F5F5F5F5F5F5F5F5F5F5F5F5F5F5F5F5F5F5F5F5F5F5F5F5F5F5F5F5F5F5F5F5F5F5F5F5F5F5E2F5F5F5F5F5F5F5F5F5F5F5F5F5F5F5F5F5F5F5F5
310
F5F5F5F5F5F5E2F5F5F5F5F5F5F5F5F5F5F5F5F5E2F5E2E2E2F5E2F5F5F5F5F5F5F5F5F5F5F5F5F5F5F5F5F5F5F5F5F5F5F5F5F5F5F5F5F5F5F5F5F5F5F5F5F5F5F5E2F5F5F5F5F5F5F5F5F5F5F5F5F5F5F5F5F5F5F5F5F5F5F5F5F5F5F5F5F5F5F5F5F5F5F5F5F5F5F5F5F5F5F5F5F5F5F5F5F5F5F5F5F5F5F5F5F5F5F5F5
310
F5F5F5F5F5F5F5F5F5F5F5F5F5F5F5F5F5F5F5F5F5F5F5F5F5F5F5F5F5F5F5E2F5F5F5F5F5F5F5F5F5F5F5F5F5F5F5F5F5F5F5F5F5F5F5F5F5F5F5E2F5F5F5F5F5F5F5F5F5F5F5F5F5E2F5E2E2E2F5E2F5F5F5F5F5F5F5F5F5F5F5F5F5F5F5F5F5F5F5F5F5F5F5F5F5F5F5F5F5F5F5F5F5F5F5F5F5F5F5F5E2F5F5F5F5F5F5
310
F5F5F5F5F5F5F5F5F5F5F5F5F5F5F5F5F5F5F5F5F5F5F5F5F5F5F5F5F5F5F5F5F5F5F5F5F5F5F5F5F5F5F5F5F5F5F5F5F5F5F5F5F5F5F5F5F5F5F5F5F5F5F5F5F5F5F5F5F5F5F5F5F5F5F5F5F5F5F5F5F5F5F5E2F5F5F5F5F5F5F5F5F5F5F5F5F5F5F5F5F5F5F5F5F5F5F5F5F5F5F5F5E2F5F5F5F5F5F5F5F5F5F5F5F5F5E2
310
F5E2E2E2F5E2F5F5F5F5F5F5F5F5F5F5F5F5F5F5F5F5F5F5F5F5F5F5F5F5F5F5F5F5F5F5F5F5F5F5F5F5F5F5F5F5F5F5F5F5F5F5F5F5F5F5F5F5F5F5F5F5F5F5F5F5F5F5F5F5F5F5F5F5F5F5F5F5F5F5F5F5F5F5F5F5F5F5F5F5F5F5F5F5F5F5F5F5F5F5F5F5F5F5F5F5F5F5F5F5F5F5F5F5F5F5F5F5F5F5F5F5F5F5F5F5F5
310
F5F5F5F5F5F5F5F5F5F5F5F5F5F5F5F5F5F5F5F5F5F5F5F5F5F5F5F5F5F5F5F5F5F5F5F5F5F5E2F5F5F5F5F5F5F5F5F5F5F5F5F5E2F5E2E2E2F5E2F5F5F5F5F5F5F5F5F5F5F5F5F5F5F5F5F5F5F5F5F5F5F5F5F5F5F5F5F5F5F5F5F5F5F5F5F5F5F5F5F5F5E2F5F5F5F5F5F5F5F5F5F5F5F5F5F5F5F5F5F5F5F5F5F5F5F5F5
310
F5F5F5F5F5F5F5F5F5F5F5F5F5F5F5F5F5F5F5F5F5F5F5F5F5F5F5F5F5F5F5F5F5F5F5F5F5F5F5F5F5F5F5F5F5F5F5F5F5F5F5F5F5F5F5F5F5F5F5F5E2F5F5F5F5F5F5F5F5F5F5F5F5F5F5F5F5F5F5F5F5F5F5F5F5F5F5F5F5F5F5E2F5F5F5F5F5F5F5F5F5F5F5F5F5E2F5E2E2E2F5E2F5F5F5F5F5F5F5F5F5F5F5F5F5F5F5
310
F5F5F5F5F5F5F5F5F5F5F5F5F5F5F5F5F5F5F5F5F5F5F5F5F5F5F5F5E2E2F5F5F5F5F5F5F5F5F5F5F5F5F5F5F5F5F5F5F5F5F5F5F5F5F5F5F5F5F5F5F5F5F5F5F5F5F5F5F5F5F5F5F5F5F5F5F5F5F5F5F5F5F5F5F5F5F5F5F5F5F5F5F5F5F5F5F5F5F5F5F5F5F5F5F5F5F5F5F5F5F5F5E2F5F5F5F5F5F5F5F5F5F5F5F5F5F5
310
F5F5F5F5F5F5F5F5F5F5F5F5F5F5F5F5F5E2F5F5F5F5F5F5F5F5F5F5F5F5F5E2F5E2E2E2F5E2F5F5F5F5F5F5F5F5F5F5F5F5F5F5F5F5F5F5F5F5F5F5F5F5F5F5F5F5F5F5F5F5F5F5F5F5F5F5F5F5F5F5F5F5F5E2F5F5F5F5F5F5F5F5F5F5F5F5F5F5F5F5F5F5F5F5F5F5F5F5F5F5F5F5F5F5F5F5F5F5F5F5F5F5F5F5F5F5F5
310
F5F5F5F5F5F5F5F5F5F5F5F5F5F5F5F5F5F5F5F5F5F5F5F5F5F5F5F5F5F5F5F5F5F5F5F5F5E2F5F5F5F5F5F5F5F5F5F5F5F5F5F5F5F5F5F5F5F5F5F5F5F5F5F5F5F5F5F5F5F5E2BEF5F5F5F5F5F5F5F5F5F5F5F5E2F5E2E2E2F5E2F5F5F5F5F5F5F5F5F5F5F5F5F5F5F5F5F5F5F5F5F5F5F5F5F5F5F5F5F5F5F5F5F5F5F5F5
310
F5F5F5F5F5F5F5F5F5F5E2E2E2E2E2E2E2E2F5F5F5E2E2E2E2E2E2E2F5F5F5E2E2E2E2E2E2E2F5F5F5E2E2E2E2E2E2E2E2F5F5E2E2E2E2E2E2E2E2F5F5E2E2E2E2E2E2E2E2F5F5E2E2E2E2E2E2E2E2F5F5E2E2E2E2E2E2E2E2E2F5F5F5F5F5F5F5F5F5F5F5F5F5F5F5F5F5F5F5F5F5F5F5F5F5F5F5F5F5F5F5E2E2E2E2E2F5
310
F5F5F5F5F5F5F5F5F5F5E2F5E2E2E2F5E2F5F5F5F5F5F5F5F5F5F5F5F5F5F5F5F5F5F5F5F5F5F5F5F5F5F5F5F5F5F5F5F5F5F5F5F5F5F5F5F5F5F5F5F5F5F5F5F5F5F5F5F5F5F5F5F5F5F5F5F5F5F5F5F5F5F5F5F5F5F5F5F5F5F5F5F5F5F5F5F5F5F5F5F5F5F5F5F5F5F5F5F5F5F5F5F5F5F5F5F5F5F5F5F5F5F5F5F5F5F5
310
F5F5F5F5F5F5F5F5F5F5F5F5F5F5F5F5F5F5F5F5F5F5F5F5F5F5F5F5F5F5F5F5F5F5F5F5F5F5F5F5F5F5F5F5F5F5F5F5F5E2F5F5F5F5F5F5F5F5F5F5F5F5F5E2F5E2E2E2F5E2F5F5F5F5F5F5F5F5F5F5F5F5F5F5F5F5F5F5F5F5F5F5F5F5F5F5F5F5F5F5F5F5F5F5F5F5F5F5F5F5F5F5F5F5F5F5F5F5F5F5F5F5F5F5F5F5F5
310
F5F5F5F5F5F5F5F5F5F5F5F5F5F5F5F5F5F5F5F5F5F5F5F5F5F5F5F5F5F5F5F5F5F5F5F5F5F5F5F5F5F5F5F5F5F5F5F5F5F5F5F5F5F5F5F5F5F5F5F5F5F5F5F5F5F5F5F5F5F5F5F5F5F5F5F5F5F5F5F5F5F5F5F5F5F5F5F5F5F5F5F5F5F5F5F5F5F5F5F5F5BEF5F5F5F5F5F5F5F5F5F5F5F5F5F5E2F5E2E2E2F5E2F5F5F5F5
310
F5F5F5F5F5F5F5F5F5F5F5F5F5F5F5F5F5F5F5F5F5F5F5F5F5F5F5F5F5F5F5F5F5F5F5F5F5F5F5F5F5F5F5F5F5F5F5F5F5F5F5F5F5F5F5F5F5F5F5F5F5F5F5F5F5F5F5F5F5F5F5F5F5F5F5F5F5F5F5F5F5F5F5F5F5F5F5F5F5F5F5F5F5F5F5F5F5F5F5F5F5F5F5F5F5F5F5F5F5F5F5F5F5F5F5F5F5F5F5F5F5F5F5F5F5F5F5
310
F5F5F5F5F5F5F5F5F5F5F5F5F5F5F5F5F5F5F5F5F5F5F5F5F5F5F5F5F5F5F5F5F5F5F5F5F5F5F5F5F5F5E2F5E2E2E2F5E2F5F5F5F5F5F5F5F5F5F5F5F5F5F5F5F5F5F5F5F5F5F5F5F5F5F5F5F5F5F5F5F5F5F5F5F5F5F5F5F5F5F5F5F5F5F5F5F5F5F5F5F5F5F5F5F5F5F5F5F5F5F5F5F5F5F5F5F5F5F5F5F5F5F5F5F5F5F5
310
F5F5F5F5F5F5F5F5F5F5F5F5F5F5F5F5F5F5F5F5F5F5F5F5F5F5F5F5F5F5F5F5F5F5F5F5F5F5F5F5F5F5F5F5F5F5F5F5F5F5F5F5F5F5F5F5F5F5F5F5F5F5F5F5F5F5F5F5F5F5F5F5F5F5F5F5F5F5F5F5F5F5F5F5F5F5F5F5F5F5F5F5F5F5F5E2F5E2E2E2F5E2F5F5F5F5F5F5F5F5F5F5F5F5F5F5F5F5F5F5F5F5F5F5F5F5F5
310
F5F5F5F5F5F5F5F5F5F5F5F5F5F5F5F5F5F5F5F5F5F5F5F5F5F5F5F5F5F5F5F5F5F5F5F5F5F5F5F5F5F5F5F5F5F5F5F5F5F5F5F5F5F5F5F5F5F5F5F5F5F5F5F5F5F5F5F5F5F5F5F5F5F5F5F5F5F5F5F5F5F5F5F5F5F5F5F5F5F5F5F5F5F5F5F5F5F5F5F5F5F5F5F5F5F5F5F5F5F5F5F5F5F5F5F5F5F5F5F5F5F5F5F5F5F5F5
310
F5F5F5F5F5F5F5F5F5F5F5F5F5F5F5F5F5F5F5F5F5E2F5E2E2E2F5E2F5F5F5F5F5F5F5F5F5F5F5F5F5F5F5F5F5F5F5F5F5F5F5F5F5F5F5F5F5F5F5F5F5F5F5F5F5F5F5F5F5F5F5F5F5F5F5F5F5F5F5F5F5F5F5F5F5F5F5F5F5F5F5F5F5F5F5F5F5F5F5F5F5F5F5F5F5F5F5F5F5F5F5F5F5F5F5F5F5F5F5F5F5F5F5F5F5F5F5
310
F5F5F5F5F5F5F5F5F5F5F5F5F5F5F5F5F5F5F5F5F5F5F5F5F5F5F5F5F5F5F5F5F5F5F5F5F5F5F5F5F5F5F5F5F5F5F5F5F5F5F5F5F5F5F5F5F5F5F5F5F5F5F5F5F5F5F5F5F5F5F5F5F5F5E2F5E2E2E2F5E2F5F5F5F5F5F5F5F5F5F5F5F5F5F5F5F5F5F5F5F5F5F5F5F5F5F5F5F5F5F5F5F5F5F5F5F5F5F5F5F5F5F5F5F5F5F5
310
F5F5F5F5F5F5F5F5F5F5F5F5F5F5F5F5F5F5F5F5F5F5F5F5F5F5F5F5F5F5F5F5F5F5F5F5F5F5F5F5F5F5F5F5F5F5F5F5F5F5F5F5F5F5F5F5F5F5F5F5F5F5F5F5F5F5F5F5F5F5F5F5F5F5F5F5F5F5F5F5F5F5F5F5F5F5F5F5F5F5F5F5F5F5F5F5F5F5F5F5F5F5F5F5F5F5F5F5F5F5F5F5F5F5F5F5F5F5F5F5F5F5F5F5F5F5F5
310
E2F5E2E2E2F5E2F5F5F5F5F5F5F5F5F5F5F5F5F5F5F5F5F5F5F5F5F5F5F5E2F5F5F5F5F5F5F5F5F5F5F5F5F5F5F5F5F5F5F5F5F5F5F5F5F5F5F5F5F5F5F5F5F5F5F5F5F5F5F5F5F5F5F5F5F5F5F5F5F5F5F5F5F5F5F5F5F5F5F5F5F5F5F5F5F5F5F5F5F5F5F5F5F5F5F5F5F5F5F5F5F5F5F5F5F5F5F5F5F5F5F5F5F5F5F5F5
310
F5F5F5F5F5F5F5F5F5F5F5F5F5F5F5F5F5F5F5F5F5F5F5F5F5F5F5F5E2F5F5F5F5F5F5F5F5F5F5F5F5F5F5F5F5F5F5F5F5F5F5F5F5E2F5E2E2E2F5E2F5F5F5F5F5F5F5F5F5F5F5F5F5F5F5F5F5F5F5F5F5BEF5E2F5F5F5F5F5F5F5F5F5F5F5F5F5F5F5F5F5F5F5F5F5F5F5F5F5F5F5F5F5F5F5F5F5F5F5F5F5F5F5F5F5F5F5
310
F5F5F5F5F5F5F5F5F5F5F5F5F5F5F5F5F5F5F5F5F5F5F5F5F5F5F5F5F5F5F5F5F5F5F5F5F5F5F5F5F5F5F5F5F5F5F5F5F5F5F5F5F5F5F5F5F5F5F5F5F5F5F5F5F5F5F5F5F5F5F5F5F5F5F5F5F5F5F5F5BEE2F5F5F5F5F5F5F5F5F5F5F5F5F5F5F5F5F5F5F5F5F5F5F5F5E2F5E2E2E2F5E2F5F5F5F5F5F5F5F5F5F5F5F5F5F5
310
F5F5F5F5F5F5F5E2E2E2E2E2E2E2E2E2E2E2E2E2E2E2E2E2E2E2E2E2E2E2E2E2E2E2E2E2E2E2E2E2E2E2E2E2E2E2E2E2E2E2E2E2E2E2E2E2E2E2E2E2E2E2E2E2E2E2E2E2E2E2E2E2E2E2E2E2E2E2E2E2E2E2E2E2E2E2E2E2E2E2E2E2E2E2E2E2E2E2E2E2E2E2E2E2E2E2E2E2E2E2E2E2E2E2E2E2E2E2E2E2E2E2E2E2E2E2E2
310
E2E2E2E2E2E2E2E2E2F5F5F5F5F5F5F5F5F5F5F5F5F5F5F5F5F5F5F5F5F5F5F5E2F5E2E2E2F5E2F5F5F5F5F5F5F5F5F5F5F5F5F5F5F5F5F5F5F5F5F5F5F5E2BEF5F5F5F5F5F5F5F5F5F5F5F5F5F5F5F5F5F5F5F5F5F5F5F5F5F5F5F5F5F5F5F5F5F5F5F5F5F5F5F5F5F5F5F5F5F5F5F5F5F5F5F5F5F5F5F5F5E2E2E2E2E2E2
310
F5F5F5F5F5F5F5F5F5F5F5F5F5F5F5F5F5F5F5F5F5F5F5F5F5F5F5F5F5F5F5F5F5F5F5F5F5F5F5F5F5F5F5F5F5F5F5F5F5F5F5F5F5F5F5F5F5F5F5F5E2BEF5F5F5F5F5F5F5F5F5F5F5F5F5F5F5F5F5F5F5F5F5F5F5E2F5E2E2E2F5E2F5F5F5F5F5F5F5F5F5F5F5F5F5F5F5F5F5F5F5F5F5F5F5E2F5F5F5F5F5F5F5F5F5F5F5
310
F5F5F5F5F5F5F5F5F5F5F5F5F5F5F5F5F5F5F5F5F5F5F5F5F5F5F5F5F5F5F5F5F5F5F5F5F5F5F5F5F5F5F5F5F5F5F5E2E2E2E2E2E2F5F5F5F5F5F5F5F5F5F5F5F5F5F5F5F5F5F5F5F5F5F5F5F5F5F5F5F5F5F5F5F5F5F5F5F5F5F5F5F5F5F5F5F5F5F5F5F5F5F5F5F5F5F5F5F5F5F5F5F5E2F5F5F5F5F5F5F5F5F5F5F5F5F5
310
F5F5F5F5F5F5F5F5F5F5F5E2F5E2E2E2F5E2F5F5F5F5F5F5F5F5F5F5F5F5F5F5F5F5F5F5F5F5F5F5F5F5F5F5F5F5F5F5F5F5F5F5F5F5F5F5F5F5F5F5F5F5F5F5F5F5F5F5F5F5F5F5F5F5F5F5F5F5F5F5F5F5F5F5F5F5F5F5F5F5F5F5F5F5F5F5F5F5F5F5E2E2E2E2E2E2F5F5F5F5F5F5F5F5F5F5F5F5F5F5F5F5F5F5F5F5F5
310
F5F5F5F5F5F5F5F5F5F5F5F5F5F5F5F5F5F5F5F5F5F5F5F5F5F5F5F5F5F5F5F5F5F5F5F5F5F5F5F5F5F5F5F5F5F5F5F5F5F5F5F5F5F5F5F5F5F5F5F5F5F5F5F5E2F5E2E2E2F5E2F5F5F5F5F5F5F5F5F5F5F5F5F5F5F5F5F5F5F5F5F5F5F5F5F5F5F5F5F5F5F5F5F5F5F5F5F5F5F5F5F5F5F5F5F5F5F5F5F5F5F5F5F5F5F5F5
310
F5F5F5F5F5F5F5F5F5F5F5F5F5F5F5F5F5F5F5F5F5F5F5F5F5F5E2E2E2E2E2E2F5F5F5F5F5F5F5F5F5F5F5F5F5F5F5F5F5F5F5F5F5F5F5F5F5F5F5F5F5F5F5F5F5F5F5F5F5F5F5F5F5F5F5F5F5F5F5F5F5F5F5F5F5F5F5F5F5F5F5F5F5F5F5F5F5F5F5F5F5F5F5F5F5F5F5F5F5F5F5F5F5F5F5F5F5E2F5E2E2E2F5E2F5F5F5
310
F5F5F5F5F5F5F5F5F5F5F5F5F5F5F5F5F5F5F5F5F5F5F5F5F5F5F5F5F5F5F5F5F5F5F5F5F5F5F5F5F5F5F5F5F5F5F5F5F5F5F5F5F5F5F5F5F5F5F5F5F5F5F5F5F5F5F5F5F5F5F5F5F5F5F5F5F5F5F5F5F5F5F5F5F5F5F5F5F5F5F5F5F5F5F5F5F5F5F5F5F5F5F5F5F5F5F5F5F5F5F5F5F5F5F5F5F5F5F5F5F5F5F5F5F5F5F5
310
F5F5F5F5F5F5F5F5F5F5F5F5F5F5F5F5F5F5F5F5F5F5F5F5F5F5F5F5F5F5F5F5F5F5F5F5F5F5F5F5F5F5F5E2F5E2E2E2F5E2F5F5F5F5F5F5F5F5F5F5F5F5F5F5F5F5F5F5F5F5F5F5F5F5F5F5F5F5F5F5F5F5F5F5F5F5F5F5F5F5F5F5F5F5F5F5F5F5F5F5F5F5F5F5F5F5F5F5F5F5F5F5F5F5F5F5F5F5F5F5F5F5F5F5F5F5F5
310
F5F5F5F5F5F5F5F5F5F5F5F5F5F5F5F5F5F5F5F5F5F5F5F5F5F5F5F5F5F5F5F5F5F5F5F5F5F5F5F5F5F5F5F5F5F5F5F5F5F5F5F5F5F5F5F5F5F5F5F5F5F5F5F5F5F5F5F5F5F5F5F5F5F5F5F5F5F5F5F5F5F5F5F5F5F5F5F5F5F5F5F5F5F5F5F5E2F5E2E2E2F5E2F5F5F5F5F5F5F5F5F5F5F5F5F5F5F5F5F5F5F5F5F5F5F5F5
310
F5F5F5F5F5F5F5F5F5F5F5F5F5F5F5F5F5F5F5F5F5F5F5F5F5F5F5F5F5F5F5F5F5F5F5F5F5F5F5F5F5F5F5F5F5F5F5F5F5F5F5F5F5F5F5F5F5F5F5F5F5F5F5F5F5F5F5F5F5F5F5F5F5F5F5F5F5F5F5F5F5F5F5F5F5F5F5F5F5F5F5F5F5F5F5F5F5F5F5F5F5F5F5F5F5F5F5F5F5F5F5F5F5F5F5F5F5F5F5F5F5F5F5F5F5F5F5
310
F5F5F5F5F5F5F5F5F5F5F5F5F5F5F5F5F5F5F5F5F5F5E2F5E2E2E2F5E2F5F5F5F5F5F5F5F5F5F5F5F5F5F5F5F5F5F5F5F5F5F5F5F5F5F5F5F5F5F5F5F5F5F5F5F5F5F5F5F5F5F5F5F5F5F5F5F5F5F5F5F5F5F5F5F5F5F5F5F5F5F5F5F5F5F5F5F5F5F5F5F5F5F5F5F5F5F5F5F5F5F5F5F5F5F5F5F5F5F5F5F5F5F5F5F5F5F5
310
F5F5F5F5F5F5F5F5F5F5F5F5F5F5F5F5F5F5F5F5F5F5F5F5F5F5F5F5F5F5F5F5F5F5F5F5F5F5F5F5F5F5F5F5F5F5F5F5F5F5F5F5F5F5F5F5F5F5F5F5F5F5F5F5F5F5F5F5F5F5F5F5F5F5F5E2F5E2E2E2F5E2F5F5F5F5F5F5F5F5F5F5F5F5F5F5F5F5F5F5F5F5F5F5F5F5F5F5F5F5F5F5F5F5F5F5F5F5F5F5F5F5F5F5F5F5F5
310
F5F5F5F5F5F5F5F5F5F5F5F5F5F5F5F5F5F5F5F5F5F5F5F5F5F5F5F5F5F5F5F5F5F5F5F5F5F5F5F5F5F5F5F5F5F5F5F5F5F5F5F5F5F5F5F5F5F5F5F5F5F5F5F5F5F5F5F5F5F5F5F5F5F5F5F5F5F5F5F5F5F5F5F5F5F5F5F5F5F5F5F5F5F5F5F5F5F5F5F5F5F5F5F5F5F5F5F5F5F5F5F5F5F5F5F5F5F5F5F5F5F5F5F5F5F5F5
310
F5E2F5E2E2E2F5E2F5F5F5F5F5F5F5F5F5F5F5F5F5F5F5F5F5F5F5F5F5F5F5F5F5F5F5F5F5F5F5F5F5F5F5F5F5F5F5F5F5F5F5F5F5F5F5F5F5F5F5F5F5F5F5F5F5F5F5F5F5F5F5F5F5F5F5F5F5F5F5F5F5F5F5F5F5F5F5F5F5F5F5F5F5F5F5F5F5F5F5F5F5F5F5F5F5F5F5F5F5F5F5F5F5F5F5F5F5F5F5F5F5F5F5F5F5F5F5
310
F5F5F5F5F5F5F5F5F5F5F5F5F5F5F5F5F5F5F5F5F5F5F5F5F5F5F5F5F5F5F5F5F5F5F5F5F5F5F5F5F5F5F5F5F5F5F5F5F5F5F5F5F5F5E2F5E2E2E2F5E2F5F5F5F5F5F5F5F5F5F5F5F5F5F5F5F5F5F5F5F5F5F5F5F5F5F5F5F5F5F5F5F5F5F5F5F5F5F5F5F5F5F5F5F5F5F5F5F5F5F5F5F5F5F5F5F5F5F5F5F5F5F5F5F5F5F5
310
F5F5F5F5F5F5F5F5F5F5F5F5F5F5F5F5F5F5F5F5F5F5F5F5F5F5F5F5F5F5F5F5F5F5F5F5F5F5F5F5F5F5F5F5F5F5F5F5F5F5F5F5F5F5F5F5F5F5F5F5F5F5F5F5F5F5F5F5F5F5F5F5F5F5F5F5F5F5F5F5F5F5F5F5F5F5F5F5F5F5F5F5F5F5F5F5F5F5F5F5F5F5F5F5F5F5F5E2F5E2E2E2F5E2F5F5F5F5F5F5F5F5F5F5F5F5F5
310
F5F5F5F5F5F5F5F5F5F5F5F5F5F5F5F5F5F5F5F5F5F5F5F5F5F5F5F5F5F5F5F5F5F5F5F5F5F5F5F5F5F5F5F5F5F5F5F5F5F5F5F5F5F5F5F5F5F5F5F5F5F5F5F5F5F5F5F5F5F5F5F5F5F5F5F5F5F5F5F5F5F5F5F5F5F5F5F5F5F5F5F5F5F5F5F5F5F5F5F5F5F5F5F5F5F5F5F5F5F5F5F5F5F5F5F5F5F5F5F5F5F5F5F5F5F5F5
310
F5F5F5F5F5F5F5F5F5F5F5F5F5F5F5F5F5F5F5F5F5F5F5F5F5F5F5F5F5F5F5F5F5E2F5E2E2E2F5E2F5F5F5F5F5F5F5F5F5F5F5F5F5F5F5F5F5F5F5F5F5F5F5F5F5F5F5F5F5F5F5F5F5F5F5F5F5F5F5F5F5F5F5F5F5F5F5F5F5F5F5F5F5F5F5F5F5F5F5F5F5F5F5F5F5F5F5F5F5F5F5F5F5F5F5F5F5F5F5F5F5F5F5F5F5F5F5
310
F5F5F5F5F5F5F5F5F5F5F5F5F5F5F5F5F5F5F5F5F5F5F5F5F5F5F5F5F5F5F5F5F5F5F5F5F5F5F5F5F5F5F5F5F5F5F5F5F5F5F5F5F5F5F5F5F5F5F5F5F5F5F5F5F5F5F5F5F5F5F5F5F5F5F5F5F5F5F5F5F5F5F5F5F5F5E2F5E2E2E2F5E2F5F5F5F5F5F5F5F5F5F5F5F5F5F5F5F5F5F5F5F5F5F5F5F5F5F5F5F5F5F5F5F5F5F5
310
F5F5F5F5F5F5F5F5F5F5F5F5F5F5F5F5F5F5F5F5F5F5F5F5F5F5F5F5F5F5F5F5F5F5F5F5F5F5F5F5F5F5F5F5F5F5F5F5F5F5F5F5F5F5F5F5F5F5F5F5F5F5F5F5F5F5F5F5F5F5F5F5F5F5F5F5F5F5F5F5F5F5F5F5F5F5F5F5F5F5F5F5F5F5F5F5F5F5F5F5F5F5F5F5F5F5F5F5F5F5F5F5F5F5F5F5F5F5F5F5F5F5F5F5F5F5F5
310
F5F5F5F5F5F5F5F5F5F5F5F5E2F5E2E2E2F5E2E2E2E2E2E2E2E2E2E2E2E2E2E2E2E2E2E2E2E2E2E2E2E2E2E2E2E2E2E2E2E2E2E2E2E2E2E2E2E2E2E2E2E2E2E2E2E2E2E2E2E2E2E2E2E2E2E2E2E2E2E2E2E2E2E2E2E2E2E2E2E2E2E2E2E2E2E2E2E2E2E2E2E2E2E2E2E2E2E2E2E2E2E2E2E2E2E2E2E2E2E2E2E2E2E2E2E2E2
310
E2E2E2E2E2E2E2E2E2E2E2E2E2E2E2E2E2E2E2E2E2E2E2E2E2E2E2E2E2E2E2E2E2E2E2E2E2E2E2E2E2E2E2E2E2E2E2E2E2E2E2E2E2E2E2E2E2E2E2E2E2E2E2E2E2E2F5E2E2E2F5F5F5F5F5F5F5F5F5F5F5F5F5F5F5F5F5F5F5F5F5F5F5F5F5F5F5F5F5F5F5F5F5F5F5F5F5F5F5F5F5F5F5F5F5F5F5F5F5F5F5F5F5F5F5F5F5
310
F5F5F5F5F5F5F5F5F5F5F5F5F5F5F5F5F5F5F5F5F5F5F5F5F5F5F5F5F5F5F5F5F5F5F5F5F5F5F5F5F5F5F5F5F5F5F5F5F5F5F5F5F5F5F5F5F5F5F5F5F5F5F5F5F5F5F5F5F5F5F5F5F5F5F5F5F5F5F5F5F5F5F5F5F5F5F5F5F5F5F5F5F5F5F5F5F5F5F5F5F5F5F5F5F5F5F5F5F5F5F5F5F5F5F5F5F5F5F5F5E2EFE2E2E2E2E2
310
E2E2E2E2E2E2E2E2E2E2E2E2E2E2E2E2E2E2E2E2E2E2E2E2E2E2E2E2E2E2E2E2E2E2E2E2E2E2E2E2E2E2E2E2E2E2E2E2E2E2E2E2E2E2E2E2E2E2E2E2E2E2E2E2E2E2E2E2E2E2E2E2E2E2E2E2E2E2E2E2E2E2E2E2E2E2E2E2E2E2E2E2E2E2E2E2E2E2E2E2E2E2E2E2E2E2E2E2E2E2E2E2E2E2E2E2E2E2E2E2E2E2E2E2E2E2E2
310
E2E2E2E2E2E2E2E2E2E2E2E2E2E2E2E2E2E2E2E2E2E2E2E2E2E2E2E2E2E2E2E2E2E2E2E2E2E2E2E2E2E2E2E2E2E2E2EF
  0
XRECORD
  5
3D1B
102
{ACAD_REACTORS
330
3D1A
102
}
330
3D1A
100
AcDbXrecord
280
     1
102
MATERIAL
148
0.0
149
0.0
149
0.0
 93
        0
 94
      127
282
     0
 72
     1
 77
     1
171
     1
175
     1
179
     1
273
     0
  0
XRECORD
  5
3D19
102
{ACAD_REACTORS
330
3D18
102
}
330
3D18
100
AcDbXrecord
280
     1
102
MATERIAL
148
0.0
149
0.0
149
0.0
 93
        0
 94
      127
282
     0
 72
     1
 77
     1
171
     1
175
     1
179
     1
273
     0
  0
XRECORD
  5
3D1D
102
{ACAD_REACTORS
330
3D1C
102
}
330
3D1C
100
AcDbXrecord
280
     1
102
MATERIAL
148
0.0
149
0.0
149
0.0
 93
        0
 94
      127
282
     0
 72
     1
 77
     1
171
     1
175
     1
179
     1
273
     0
  0
CELLSTYLEMAP
  5
5F2B
102
{ACAD_REACTORS
330
382E
102
}
330
382E
100
AcDbCellStyleMap
 90
        3
300
CELLSTYLE
  1
TABLEFORMAT_BEGIN
 90
        5
170
     1
 91
        0
 92
    32768
 62
   257
 93
        1
300
CONTENTFORMAT
  1
CONTENTFORMAT_BEGIN
 90
        0
 91
        0
 92
      512
 93
        0
300

 40
0.0
140
1.0
 94
        5
 62
     0
340
11
144
0.25
309
CONTENTFORMAT_END
171
     1
301
MARGIN
  1
CELLMARGIN_BEGIN
 40
0.06
 40
0.06
 40
0.06
 40
0.06
 40
0.18
 40
0.18
309
CELLMARGIN_END
 94
        6
 95
        1
302
GRIDFORMAT
  1
GRIDFORMAT_BEGIN
 90
        0
 91
        1
 62
     0
 92
       -2
340
0
 93
        0
 40
0.045
309
GRIDFORMAT_END
 95
        2
302
GRIDFORMAT
  1
GRIDFORMAT_BEGIN
 90
        0
 91
        1
 62
     0
 92
       -2
340
0
 93
        0
 40
0.045
309
GRIDFORMAT_END
 95
        4
302
GRIDFORMAT
  1
GRIDFORMAT_BEGIN
 90
        0
 91
        1
 62
     0
 92
       -2
340
0
 93
        0
 40
0.045
309
GRIDFORMAT_END
 95
        8
302
GRIDFORMAT
  1
GRIDFORMAT_BEGIN
 90
        0
 91
        1
 62
     0
 92
       -2
340
0
 93
        0
 40
0.045
309
GRIDFORMAT_END
 95
       16
302
GRIDFORMAT
  1
GRIDFORMAT_BEGIN
 90
        0
 91
        1
 62
     0
 92
       -2
340
0
 93
        0
 40
0.045
309
GRIDFORMAT_END
 95
       32
302
GRIDFORMAT
  1
GRIDFORMAT_BEGIN
 90
        0
 91
        1
 62
     0
 92
       -2
340
0
 93
        0
 40
0.045
309
GRIDFORMAT_END
309
TABLEFORMAT_END
  1
CELLSTYLE_BEGIN
 90
        1
 91
        1
300
_TITLE
309
CELLSTYLE_END
300
CELLSTYLE
  1
TABLEFORMAT_BEGIN
 90
        5
170
     1
 91
        0
 92
        0
 62
   257
 93
        1
300
CONTENTFORMAT
  1
CONTENTFORMAT_BEGIN
 90
        0
 91
        0
 92
      512
 93
        0
300

 40
0.0
140
1.0
 94
        5
 62
     0
340
11
144
0.18
309
CONTENTFORMAT_END
171
     1
301
MARGIN
  1
CELLMARGIN_BEGIN
 40
0.06
 40
0.06
 40
0.06
 40
0.06
 40
0.18
 40
0.18
309
CELLMARGIN_END
 94
        6
 95
        1
302
GRIDFORMAT
  1
GRIDFORMAT_BEGIN
 90
        0
 91
        1
 62
     0
 92
       -2
340
0
 93
        0
 40
0.045
309
GRIDFORMAT_END
 95
        2
302
GRIDFORMAT
  1
GRIDFORMAT_BEGIN
 90
        0
 91
        1
 62
     0
 92
       -2
340
0
 93
        0
 40
0.045
309
GRIDFORMAT_END
 95
        4
302
GRIDFORMAT
  1
GRIDFORMAT_BEGIN
 90
        0
 91
        1
 62
     0
 92
       -2
340
0
 93
        0
 40
0.045
309
GRIDFORMAT_END
 95
        8
302
GRIDFORMAT
  1
GRIDFORMAT_BEGIN
 90
        0
 91
        1
 62
     0
 92
       -2
340
0
 93
        0
 40
0.045
309
GRIDFORMAT_END
 95
       16
302
GRIDFORMAT
  1
GRIDFORMAT_BEGIN
 90
        0
 91
        1
 62
     0
 92
       -2
340
0
 93
        0
 40
0.045
309
GRIDFORMAT_END
 95
       32
302
GRIDFORMAT
  1
GRIDFORMAT_BEGIN
 90
        0
 91
        1
 62
     0
 92
       -2
340
0
 93
        0
 40
0.045
309
GRIDFORMAT_END
309
TABLEFORMAT_END
  1
CELLSTYLE_BEGIN
 90
        2
 91
        1
300
_HEADER
309
CELLSTYLE_END
300
CELLSTYLE
  1
TABLEFORMAT_BEGIN
 90
        5
170
     1
 91
        0
 92
        0
 62
   257
 93
        1
300
CONTENTFORMAT
  1
CONTENTFORMAT_BEGIN
 90
        0
 91
        0
 92
      512
 93
        0
300

 40
0.0
140
1.0
 94
        2
 62
     0
340
11
144
0.18
309
CONTENTFORMAT_END
171
     1
301
MARGIN
  1
CELLMARGIN_BEGIN
 40
0.06
 40
0.06
 40
0.06
 40
0.06
 40
0.18
 40
0.18
309
CELLMARGIN_END
 94
        6
 95
        1
302
GRIDFORMAT
  1
GRIDFORMAT_BEGIN
 90
        0
 91
        1
 62
     0
 92
       -2
340
0
 93
        0
 40
0.045
309
GRIDFORMAT_END
 95
        2
302
GRIDFORMAT
  1
GRIDFORMAT_BEGIN
 90
        0
 91
        1
 62
     0
 92
       -2
340
0
 93
        0
 40
0.045
309
GRIDFORMAT_END
 95
        4
302
GRIDFORMAT
  1
GRIDFORMAT_BEGIN
 90
        0
 91
        1
 62
     0
 92
       -2
340
0
 93
        0
 40
0.045
309
GRIDFORMAT_END
 95
        8
302
GRIDFORMAT
  1
GRIDFORMAT_BEGIN
 90
        0
 91
        1
 62
     0
 92
       -2
340
0
 93
        0
 40
0.045
309
GRIDFORMAT_END
 95
       16
302
GRIDFORMAT
  1
GRIDFORMAT_BEGIN
 90
        0
 91
        1
 62
     0
 92
       -2
340
0
 93
        0
 40
0.045
309
GRIDFORMAT_END
 95
       32
302
GRIDFORMAT
  1
GRIDFORMAT_BEGIN
 90
        0
 91
        1
 62
     0
 92
       -2
340
0
 93
        0
 40
0.045
309
GRIDFORMAT_END
309
TABLEFORMAT_END
  1
CELLSTYLE_BEGIN
 90
        3
 91
        2
300
_DATA
309
CELLSTYLE_END
  0
XRECORD
  5
5F2C
102
{ACAD_REACTORS
330
382E
102
}
330
382E
100
AcDbXrecord
280
     1
102
ACAD_ROUNDTRIP_PRE2007_TABLESTYLE
 90
      512
 91
        0
  1

 92
      512
 93
        0
  2

 94
      512
 95
        0
  3

  0
XRECORD
  5
49B
102
{ACAD_REACTORS
330
49A
102
}
330
49A
100
AcDbXrecord
280
     1
102
RTVSPropertyOp0
 70
     1
102
RTVSPropertyOp1
 70
     1
102
RTVSPropertyOp2
 70
     1
102
RTVSPropertyOp3
 70
     1
102
RTVSPropertyOp4
 70
     1
102
RTVSPropertyOp5
 70
     1
102
RTVSPropertyOp6
 70
     1
102
RTVSPropertyOp7
 70
     1
102
RTVSPropertyOp8
 70
     1
102
RTVSPropertyOp9
 70
     1
102
RTVSPropertyOp10
 70
     1
102
RTVSPropertyOp11
 70
     1
102
RTVSPropertyOp12
 70
     1
102
RTVSPropertyOp13
 70
     1
102
RTVSPropertyOp14
 70
     1
102
RTVSPropertyOp15
 70
     1
102
RTVSPropertyOp16
 70
     1
102
RTVSPropertyOp17
 70
     1
102
RTVSPropertyOp18
 70
     1
102
RTVSPropertyOp19
 70
     1
102
RTVSPropertyOp20
 70
     1
102
RTVSPropertyOp21
 70
     1
102
RTVSPropertyOp22
 70
     1
102
RTVSPropertyOp23
 70
     1
102
RTVSPropertyOp24
 70
     1
102
RTVSPropertyOp25
 70
     1
102
RTVSPropertyOp26
 70
     1
102
RTVSPropertyOp27
 70
     1
  0
XRECORD
  5
4A1
102
{ACAD_REACTORS
330
4A0
102
}
330
4A0
100
AcDbXrecord
280
     1
102
RTVSPropertyOp0
 70
     1
102
RTVSPropertyOp1
 70
     1
102
RTVSPropertyOp2
 70
     1
102
RTVSPropertyOp3
 70
     1
102
RTVSPropertyOp4
 70
     1
102
RTVSPropertyOp5
 70
     1
102
RTVSPropertyOp6
 70
     1
102
RTVSPropertyOp7
 70
     1
102
RTVSPropertyOp8
 70
     1
102
RTVSPropertyOp9
 70
     1
102
RTVSPropertyOp10
 70
     1
102
RTVSPropertyOp11
 70
     1
102
RTVSPropertyOp12
 70
     1
102
RTVSPropertyOp13
 70
     1
102
RTVSPropertyOp14
 70
     1
102
RTVSPropertyOp15
 70
     1
102
RTVSPropertyOp16
 70
     1
102
RTVSPropertyOp17
 70
     1
102
RTVSPropertyOp18
 70
     1
102
RTVSPropertyOp19
 70
     1
102
RTVSPropertyOp20
 70
     1
102
RTVSPropertyOp21
 70
     1
102
RTVSPropertyOp22
 70
     1
102
RTVSPropertyOp23
 70
     1
102
RTVSPropertyOp24
 70
     1
102
RTVSPropertyOp25
 70
     1
102
RTVSPropertyOp26
 70
     1
102
RTVSPropertyOp27
 70
     1
  0
XRECORD
  5
4A9
102
{ACAD_REACTORS
330
4A8
102
}
330
4A8
100
AcDbXrecord
280
     1
102
RTVSPropertyOp0
 70
     1
102
RTVSPropertyOp1
 70
     1
102
RTVSPropertyOp2
 70
     1
102
RTVSPropertyOp3
 70
     1
102
RTVSPropertyOp4
 70
     1
102
RTVSPropertyOp5
 70
     1
102
RTVSPropertyOp6
 70
     1
102
RTVSPropertyOp7
 70
     1
102
RTVSPropertyOp8
 70
     1
102
RTVSPropertyOp9
 70
     1
102
RTVSPropertyOp10
 70
     1
102
RTVSPropertyOp11
 70
     1
102
RTVSPropertyOp12
 70
     1
102
RTVSPropertyOp13
 70
     1
102
RTVSPropertyOp14
 70
     1
102
RTVSPropertyOp15
 70
     1
102
RTVSPropertyOp16
 70
     1
102
RTVSPropertyOp17
 70
     1
102
RTVSPropertyOp18
 70
     1
102
RTVSPropertyOp19
 70
     1
102
RTVSPropertyOp20
 70
     1
102
RTVSPropertyOp21
 70
     1
102
RTVSPropertyOp22
 70
     1
102
RTVSPropertyOp23
 70
     1
102
RTVSPropertyOp24
 70
     1
102
RTVSPropertyOp25
 70
     1
102
RTVSPropertyOp26
 70
     1
102
RTVSPropertyOp27
 70
     1
  0
XRECORD
  5
4B1
102
{ACAD_REACTORS
330
4B0
102
}
330
4B0
100
AcDbXrecord
280
     1
102
RTVSPropertyOp0
 70
     1
102
RTVSPropertyOp1
 70
     1
102
RTVSPropertyOp2
 70
     1
102
RTVSPropertyOp3
 70
     1
102
RTVSPropertyOp4
 70
     1
102
RTVSPropertyOp5
 70
     1
102
RTVSPropertyOp6
 70
     1
102
RTVSPropertyOp7
 70
     1
102
RTVSPropertyOp8
 70
     1
102
RTVSPropertyOp9
 70
     1
102
RTVSPropertyOp10
 70
     1
102
RTVSPropertyOp11
 70
     1
102
RTVSPropertyOp12
 70
     1
102
RTVSPropertyOp13
 70
     1
102
RTVSPropertyOp14
 70
     1
102
RTVSPropertyOp15
 70
     1
102
RTVSPropertyOp16
 70
     1
102
RTVSPropertyOp17
 70
     1
102
RTVSPropertyOp18
 70
     1
102
RTVSPropertyOp19
 70
     1
102
RTVSPropertyOp20
 70
     1
102
RTVSPropertyOp21
 70
     1
102
RTVSPropertyOp22
 70
     1
102
RTVSPropertyOp23
 70
     1
102
RTVSPropertyOp24
 70
     1
102
RTVSPropertyOp25
 70
     1
102
RTVSPropertyOp26
 70
     1
102
RTVSPropertyOp27
 70
     1
  0
XRECORD
  5
4A7
102
{ACAD_REACTORS
330
4A6
102
}
330
4A6
100
AcDbXrecord
280
     1
102
RTVSPropertyOp0
 70
     1
102
RTVSPropertyOp1
 70
     1
102
RTVSPropertyOp2
 70
     1
102
RTVSPropertyOp3
 70
     1
102
RTVSPropertyOp4
 70
     1
102
RTVSPropertyOp5
 70
     1
102
RTVSPropertyOp6
 70
     1
102
RTVSPropertyOp7
 70
     1
102
RTVSPropertyOp8
 70
     1
102
RTVSPropertyOp9
 70
     1
102
RTVSPropertyOp10
 70
     1
102
RTVSPropertyOp11
 70
     1
102
RTVSPropertyOp12
 70
     1
102
RTVSPropertyOp13
 70
     1
102
RTVSPropertyOp14
 70
     1
102
RTVSPropertyOp15
 70
     1
102
RTVSPropertyOp16
 70
     1
102
RTVSPropertyOp17
 70
     1
102
RTVSPropertyOp18
 70
     1
102
RTVSPropertyOp19
 70
     1
102
RTVSPropertyOp20
 70
     1
102
RTVSPropertyOp21
 70
     1
102
RTVSPropertyOp22
 70
     1
102
RTVSPropertyOp23
 70
     1
102
RTVSPropertyOp24
 70
     1
102
RTVSPropertyOp25
 70
     1
102
RTVSPropertyOp26
 70
     1
102
RTVSPropertyOp27
 70
     1
  0
XRECORD
  5
4AF
102
{ACAD_REACTORS
330
4AE
102
}
330
4AE
100
AcDbXrecord
280
     1
102
RTVSPropertyOp0
 70
     1
102
RTVSPropertyOp1
 70
     1
102
RTVSPropertyOp2
 70
     1
102
RTVSPropertyOp3
 70
     1
102
RTVSPropertyOp4
 70
     1
102
RTVSPropertyOp5
 70
     1
102
RTVSPropertyOp6
 70
     1
102
RTVSPropertyOp7
 70
     1
102
RTVSPropertyOp8
 70
     1
102
RTVSPropertyOp9
 70
     1
102
RTVSPropertyOp10
 70
     1
102
RTVSPropertyOp11
 70
     1
102
RTVSPropertyOp12
 70
     1
102
RTVSPropertyOp13
 70
     1
102
RTVSPropertyOp14
 70
     1
102
RTVSPropertyOp15
 70
     1
102
RTVSPropertyOp16
 70
     1
102
RTVSPropertyOp17
 70
     1
102
RTVSPropertyOp18
 70
     1
102
RTVSPropertyOp19
 70
     1
102
RTVSPropertyOp20
 70
     1
102
RTVSPropertyOp21
 70
     1
102
RTVSPropertyOp22
 70
     1
102
RTVSPropertyOp23
 70
     1
102
RTVSPropertyOp24
 70
     1
102
RTVSPropertyOp25
 70
     1
102
RTVSPropertyOp26
 70
     1
102
RTVSPropertyOp27
 70
     1
  0
XRECORD
  5
493
102
{ACAD_REACTORS
330
492
102
}
330
492
100
AcDbXrecord
280
     1
102
RTVSPropertyOp0
 70
     1
102
RTVSPropertyOp1
 70
     1
102
RTVSPropertyOp2
 70
     1
102
RTVSPropertyOp3
 70
     1
102
RTVSPropertyOp4
 70
     1
102
RTVSPropertyOp5
 70
     1
102
RTVSPropertyOp6
 70
     1
102
RTVSPropertyOp7
 70
     1
102
RTVSPropertyOp8
 70
     1
102
RTVSPropertyOp9
 70
     1
102
RTVSPropertyOp10
 70
     1
102
RTVSPropertyOp11
 70
     1
102
RTVSPropertyOp12
 70
     1
102
RTVSPropertyOp13
 70
     1
102
RTVSPropertyOp14
 70
     1
102
RTVSPropertyOp15
 70
     1
102
RTVSPropertyOp16
 70
     1
102
RTVSPropertyOp17
 70
     1
102
RTVSPropertyOp18
 70
     1
102
RTVSPropertyOp19
 70
     1
102
RTVSPropertyOp20
 70
     1
102
RTVSPropertyOp21
 70
     1
102
RTVSPropertyOp22
 70
     1
102
RTVSPropertyOp23
 70
     1
102
RTVSPropertyOp24
 70
     1
102
RTVSPropertyOp25
 70
     1
102
RTVSPropertyOp26
 70
     1
102
RTVSPropertyOp27
 70
     1
  0
XRECORD
  5
495
102
{ACAD_REACTORS
330
494
102
}
330
494
100
AcDbXrecord
280
     1
102
RTVSPropertyOp0
 70
     1
102
RTVSPropertyOp1
 70
     1
102
RTVSPropertyOp2
 70
     1
102
RTVSPropertyOp3
 70
     1
102
RTVSPropertyOp4
 70
     1
102
RTVSPropertyOp5
 70
     1
102
RTVSPropertyOp6
 70
     1
102
RTVSPropertyOp7
 70
     1
102
RTVSPropertyOp8
 70
     1
102
RTVSPropertyOp9
 70
     1
102
RTVSPropertyOp10
 70
     1
102
RTVSPropertyOp11
 70
     1
102
RTVSPropertyOp12
 70
     1
102
RTVSPropertyOp13
 70
     1
102
RTVSPropertyOp14
 70
     1
102
RTVSPropertyOp15
 70
     1
102
RTVSPropertyOp16
 70
     1
102
RTVSPropertyOp17
 70
     1
102
RTVSPropertyOp18
 70
     1
102
RTVSPropertyOp19
 70
     1
102
RTVSPropertyOp20
 70
     1
102
RTVSPropertyOp21
 70
     1
102
RTVSPropertyOp22
 70
     1
102
RTVSPropertyOp23
 70
     1
102
RTVSPropertyOp24
 70
     1
102
RTVSPropertyOp25
 70
     1
102
RTVSPropertyOp26
 70
     1
102
RTVSPropertyOp27
 70
     1
  0
XRECORD
  5
497
102
{ACAD_REACTORS
330
496
102
}
330
496
100
AcDbXrecord
280
     1
102
RTVSPropertyOp0
 70
     1
102
RTVSPropertyOp1
 70
     1
102
RTVSPropertyOp2
 70
     1
102
RTVSPropertyOp3
 70
     1
102
RTVSPropertyOp4
 70
     1
102
RTVSPropertyOp5
 70
     1
102
RTVSPropertyOp6
 70
     1
102
RTVSPropertyOp7
 70
     1
102
RTVSPropertyOp8
 70
     1
102
RTVSPropertyOp9
 70
     1
102
RTVSPropertyOp10
 70
     1
102
RTVSPropertyOp11
 70
     1
102
RTVSPropertyOp12
 70
     1
102
RTVSPropertyOp13
 70
     1
102
RTVSPropertyOp14
 70
     1
102
RTVSPropertyOp15
 70
     1
102
RTVSPropertyOp16
 70
     1
102
RTVSPropertyOp17
 70
     1
102
RTVSPropertyOp18
 70
     1
102
RTVSPropertyOp19
 70
     1
102
RTVSPropertyOp20
 70
     1
102
RTVSPropertyOp21
 70
     1
102
RTVSPropertyOp22
 70
     1
102
RTVSPropertyOp23
 70
     1
102
RTVSPropertyOp24
 70
     1
102
RTVSPropertyOp25
 70
     1
102
RTVSPropertyOp26
 70
     1
102
RTVSPropertyOp27
 70
     1
  0
XRECORD
  5
499
102
{ACAD_REACTORS
330
498
102
}
330
498
100
AcDbXrecord
280
     1
102
RTVSPropertyOp0
 70
     1
102
RTVSPropertyOp1
 70
     1
102
RTVSPropertyOp2
 70
     1
102
RTVSPropertyOp3
 70
     1
102
RTVSPropertyOp4
 70
     1
102
RTVSPropertyOp5
 70
     1
102
RTVSPropertyOp6
 70
     1
102
RTVSPropertyOp7
 70
     1
102
RTVSPropertyOp8
 70
     1
102
RTVSPropertyOp9
 70
     1
102
RTVSPropertyOp10
 70
     1
102
RTVSPropertyOp11
 70
     1
102
RTVSPropertyOp12
 70
     1
102
RTVSPropertyOp13
 70
     1
102
RTVSPropertyOp14
 70
     1
102
RTVSPropertyOp15
 70
     1
102
RTVSPropertyOp16
 70
     1
102
RTVSPropertyOp17
 70
     1
102
RTVSPropertyOp18
 70
     1
102
RTVSPropertyOp19
 70
     1
102
RTVSPropertyOp20
 70
     1
102
RTVSPropertyOp21
 70
     1
102
RTVSPropertyOp22
 70
     1
102
RTVSPropertyOp23
 70
     1
102
RTVSPropertyOp24
 70
     1
102
RTVSPropertyOp25
 70
     1
102
RTVSPropertyOp26
 70
     1
102
RTVSPropertyOp27
 70
     1
  0
XRECORD
  5
4AD
102
{ACAD_REACTORS
330
4AC
102
}
330
4AC
100
AcDbXrecord
280
     1
102
RTVSPropertyOp0
 70
     1
102
RTVSPropertyOp1
 70
     1
102
RTVSPropertyOp2
 70
     1
102
RTVSPropertyOp3
 70
     1
102
RTVSPropertyOp4
 70
     1
102
RTVSPropertyOp5
 70
     1
102
RTVSPropertyOp6
 70
     1
102
RTVSPropertyOp7
 70
     1
102
RTVSPropertyOp8
 70
     1
102
RTVSPropertyOp9
 70
     1
102
RTVSPropertyOp10
 70
     1
102
RTVSPropertyOp11
 70
     1
102
RTVSPropertyOp12
 70
     1
102
RTVSPropertyOp13
 70
     1
102
RTVSPropertyOp14
 70
     1
102
RTVSPropertyOp15
 70
     1
102
RTVSPropertyOp16
 70
     1
102
RTVSPropertyOp17
 70
     1
102
RTVSPropertyOp18
 70
     1
102
RTVSPropertyOp19
 70
     1
102
RTVSPropertyOp20
 70
     1
102
RTVSPropertyOp21
 70
     1
102
RTVSPropertyOp22
 70
     1
102
RTVSPropertyOp23
 70
     1
102
RTVSPropertyOp24
 70
     1
102
RTVSPropertyOp25
 70
     1
102
RTVSPropertyOp26
 70
     1
102
RTVSPropertyOp27
 70
     1
  0
XRECORD
  5
4AB
102
{ACAD_REACTORS
330
4AA
102
}
330
4AA
100
AcDbXrecord
280
     1
102
RTVSPropertyOp0
 70
     1
102
RTVSPropertyOp1
 70
     1
102
RTVSPropertyOp2
 70
     1
102
RTVSPropertyOp3
 70
     1
102
RTVSPropertyOp4
 70
     1
102
RTVSPropertyOp5
 70
     1
102
RTVSPropertyOp6
 70
     1
102
RTVSPropertyOp7
 70
     1
102
RTVSPropertyOp8
 70
     1
102
RTVSPropertyOp9
 70
     1
102
RTVSPropertyOp10
 70
     1
102
RTVSPropertyOp11
 70
     1
102
RTVSPropertyOp12
 70
     1
102
RTVSPropertyOp13
 70
     1
102
RTVSPropertyOp14
 70
     1
102
RTVSPropertyOp15
 70
     1
102
RTVSPropertyOp16
 70
     1
102
RTVSPropertyOp17
 70
     1
102
RTVSPropertyOp18
 70
     1
102
RTVSPropertyOp19
 70
     1
102
RTVSPropertyOp20
 70
     1
102
RTVSPropertyOp21
 70
     1
102
RTVSPropertyOp22
 70
     1
102
RTVSPropertyOp23
 70
     1
102
RTVSPropertyOp24
 70
     1
102
RTVSPropertyOp25
 70
     1
102
RTVSPropertyOp26
 70
     1
102
RTVSPropertyOp27
 70
     1
  0
ENDSEC
  0
EOF
